  0
SECTION
  2
HEADER
  9
$ACADVER
  1
AC1015
  9
$ACADMAINTVER
 70
    20
  9
$DWGCODEPAGE
  3
ANSI_1252
  9
$INSBASE
 10
0.0
 20
0.0
 30
0.0
  9
$EXTMIN
 10
37.38745970722719
 20
18.57893180683774
 30
0.0
  9
$EXTMAX
 10
371.2443350250881
 20
295.9598189768221
 30
0.0
  9
$LIMMIN
 10
0.0
 20
0.0
  9
$LIMMAX
 10
12.0
 20
9.0
  9
$ORTHOMODE
 70
     0
  9
$REGENMODE
 70
     1
  9
$FILLMODE
 70
     1
  9
$QTEXTMODE
 70
     0
  9
$MIRRTEXT
 70
     0
  9
$LTSCALE
 40
1.0
  9
$ATTMODE
 70
     1
  9
$TEXTSIZE
 40
0.2
  9
$TRACEWID
 40
0.05
  9
$TEXTSTYLE
  7
Standard
  9
$CLAYER
  8
0
  9
$CELTYPE
  6
ByLayer
  9
$CECOLOR
 62
   256
  9
$CELTSCALE
 40
1.0
  9
$DISPSILH
 70
     0
  9
$DIMSCALE
 40
1.0
  9
$DIMASZ
 40
0.18
  9
$DIMEXO
 40
0.0625
  9
$DIMDLI
 40
0.38
  9
$DIMRND
 40
0.0
  9
$DIMDLE
 40
0.0
  9
$DIMEXE
 40
0.18
  9
$DIMTP
 40
0.0
  9
$DIMTM
 40
0.0
  9
$DIMTXT
 40
0.18
  9
$DIMCEN
 40
0.09
  9
$DIMTSZ
 40
0.0
  9
$DIMTOL
 70
     0
  9
$DIMLIM
 70
     0
  9
$DIMTIH
 70
     1
  9
$DIMTOH
 70
     1
  9
$DIMSE1
 70
     0
  9
$DIMSE2
 70
     0
  9
$DIMTAD
 70
     0
  9
$DIMZIN
 70
     0
  9
$DIMBLK
  1

  9
$DIMASO
 70
     1
  9
$DIMSHO
 70
     1
  9
$DIMPOST
  1

  9
$DIMAPOST
  1

  9
$DIMALT
 70
     0
  9
$DIMALTD
 70
     2
  9
$DIMALTF
 40
25.4
  9
$DIMLFAC
 40
1.0
  9
$DIMTOFL
 70
     0
  9
$DIMTVP
 40
0.0
  9
$DIMTIX
 70
     0
  9
$DIMSOXD
 70
     0
  9
$DIMSAH
 70
     0
  9
$DIMBLK1
  1

  9
$DIMBLK2
  1

  9
$DIMSTYLE
  2
Standard
  9
$DIMCLRD
 70
     0
  9
$DIMCLRE
 70
     0
  9
$DIMCLRT
 70
     0
  9
$DIMTFAC
 40
1.0
  9
$DIMGAP
 40
0.09
  9
$DIMJUST
 70
     0
  9
$DIMSD1
 70
     0
  9
$DIMSD2
 70
     0
  9
$DIMTOLJ
 70
     1
  9
$DIMTZIN
 70
     0
  9
$DIMALTZ
 70
     0
  9
$DIMALTTZ
 70
     0
  9
$DIMUPT
 70
     0
  9
$DIMDEC
 70
     4
  9
$DIMTDEC
 70
     4
  9
$DIMALTU
 70
     2
  9
$DIMALTTD
 70
     2
  9
$DIMTXSTY
  7
Standard
  9
$DIMAUNIT
 70
     0
  9
$DIMADEC
 70
     0
  9
$DIMALTRND
 40
0.0
  9
$DIMAZIN
 70
     0
  9
$DIMDSEP
 70
    46
  9
$DIMATFIT
 70
     3
  9
$DIMFRAC
 70
     0
  9
$DIMLDRBLK
  1

  9
$DIMLUNIT
 70
     2
  9
$DIMLWD
 70
    -2
  9
$DIMLWE
 70
    -2
  9
$DIMTMOVE
 70
     0
  9
$LUNITS
 70
     2
  9
$LUPREC
 70
     4
  9
$SKETCHINC
 40
0.1
  9
$FILLETRAD
 40
0.0
  9
$AUNITS
 70
     0
  9
$AUPREC
 70
     0
  9
$MENU
  1
.
  9
$ELEVATION
 40
0.0
  9
$PELEVATION
 40
0.0
  9
$THICKNESS
 40
0.0
  9
$LIMCHECK
 70
     0
  9
$CHAMFERA
 40
0.0
  9
$CHAMFERB
 40
0.0
  9
$CHAMFERC
 40
0.0
  9
$CHAMFERD
 40
0.0
  9
$SKPOLY
 70
     0
  9
$TDCREATE
 40
2458472.386546493
  9
$TDUCREATE
 40
2458472.094879827
  9
$TDUPDATE
 40
2458472.387170834
  9
$TDUUPDATE
 40
2458472.095504167
  9
$TDINDWG
 40
0.0006286921
  9
$TDUSRTIMER
 40
0.0006286343
  9
$USRTIMER
 70
     1
  9
$ANGBASE
 50
0.0
  9
$ANGDIR
 70
     0
  9
$PDMODE
 70
     0
  9
$PDSIZE
 40
0.0
  9
$PLINEWID
 40
0.0
  9
$SPLFRAME
 70
     0
  9
$SPLINETYPE
 70
     6
  9
$SPLINESEGS
 70
     8
  9
$HANDSEED
  5
61A
  9
$SURFTAB1
 70
     6
  9
$SURFTAB2
 70
     6
  9
$SURFTYPE
 70
     6
  9
$SURFU
 70
     6
  9
$SURFV
 70
     6
  9
$UCSBASE
  2

  9
$UCSNAME
  2

  9
$UCSORG
 10
0.0
 20
0.0
 30
0.0
  9
$UCSXDIR
 10
1.0
 20
0.0
 30
0.0
  9
$UCSYDIR
 10
0.0
 20
1.0
 30
0.0
  9
$UCSORTHOREF
  2

  9
$UCSORTHOVIEW
 70
     0
  9
$UCSORGTOP
 10
0.0
 20
0.0
 30
0.0
  9
$UCSORGBOTTOM
 10
0.0
 20
0.0
 30
0.0
  9
$UCSORGLEFT
 10
0.0
 20
0.0
 30
0.0
  9
$UCSORGRIGHT
 10
0.0
 20
0.0
 30
0.0
  9
$UCSORGFRONT
 10
0.0
 20
0.0
 30
0.0
  9
$UCSORGBACK
 10
0.0
 20
0.0
 30
0.0
  9
$PUCSBASE
  2

  9
$PUCSNAME
  2

  9
$PUCSORG
 10
0.0
 20
0.0
 30
0.0
  9
$PUCSXDIR
 10
1.0
 20
0.0
 30
0.0
  9
$PUCSYDIR
 10
0.0
 20
1.0
 30
0.0
  9
$PUCSORTHOREF
  2

  9
$PUCSORTHOVIEW
 70
     0
  9
$PUCSORGTOP
 10
0.0
 20
0.0
 30
0.0
  9
$PUCSORGBOTTOM
 10
0.0
 20
0.0
 30
0.0
  9
$PUCSORGLEFT
 10
0.0
 20
0.0
 30
0.0
  9
$PUCSORGRIGHT
 10
0.0
 20
0.0
 30
0.0
  9
$PUCSORGFRONT
 10
0.0
 20
0.0
 30
0.0
  9
$PUCSORGBACK
 10
0.0
 20
0.0
 30
0.0
  9
$USERI1
 70
     0
  9
$USERI2
 70
     0
  9
$USERI3
 70
     0
  9
$USERI4
 70
     0
  9
$USERI5
 70
     0
  9
$USERR1
 40
0.0
  9
$USERR2
 40
0.0
  9
$USERR3
 40
0.0
  9
$USERR4
 40
0.0
  9
$USERR5
 40
0.0
  9
$WORLDVIEW
 70
     1
  9
$SHADEDGE
 70
     3
  9
$SHADEDIF
 70
    70
  9
$TILEMODE
 70
     1
  9
$MAXACTVP
 70
    64
  9
$PINSBASE
 10
0.0
 20
0.0
 30
0.0
  9
$PLIMCHECK
 70
     0
  9
$PEXTMIN
 10
0.0
 20
0.0
 30
0.0
  9
$PEXTMAX
 10
0.0
 20
0.0
 30
0.0
  9
$PLIMMIN
 10
0.0
 20
0.0
  9
$PLIMMAX
 10
12.0
 20
9.0
  9
$UNITMODE
 70
     0
  9
$VISRETAIN
 70
     1
  9
$PLINEGEN
 70
     0
  9
$PSLTSCALE
 70
     1
  9
$TREEDEPTH
 70
  3020
  9
$CMLSTYLE
  2
Standard
  9
$CMLJUST
 70
     0
  9
$CMLSCALE
 40
1.0
  9
$PROXYGRAPHICS
 70
     1
  9
$MEASUREMENT
 70
     0
  9
$CELWEIGHT
370
    -1
  9
$ENDCAPS
280
     0
  9
$JOINSTYLE
280
     0
  9
$LWDISPLAY
290
     0
  9
$INSUNITS
 70
     1
  9
$HYPERLINKBASE
  1

  9
$STYLESHEET
  1

  9
$XEDIT
290
     1
  9
$CEPSNTYPE
380
     0
  9
$PSTYLEMODE
290
     1
  9
$FINGERPRINTGUID
  2
{0BE9344E-EC2D-4407-B29C-5CA2BD72287D}
  9
$VERSIONGUID
  2
{DEEE4063-097C-4164-B3C5-764B7498D0C4}
  9
$EXTNAMES
290
     1
  9
$PSVPSCALE
 40
0.0
  9
$OLESTARTUP
290
     0
  0
ENDSEC
  0
SECTION
  2
CLASSES
  0
CLASS
  1
ACDBDICTIONARYWDFLT
  2
AcDbDictionaryWithDefault
  3
ObjectDBX Classes
 90
        0
280
     0
281
     0
  0
CLASS
  1
ACDBPLACEHOLDER
  2
AcDbPlaceHolder
  3
ObjectDBX Classes
 90
        0
280
     0
281
     0
  0
CLASS
  1
LAYOUT
  2
AcDbLayout
  3
ObjectDBX Classes
 90
        0
280
     0
281
     0
  0
CLASS
  1
DICTIONARYVAR
  2
AcDbDictionaryVar
  3
ObjectDBX Classes
 90
        0
280
     0
281
     0
  0
CLASS
  1
TABLESTYLE
  2
AcDbTableStyle
  3
ObjectDBX Classes
 90
     4095
280
     0
281
     0
  0
CLASS
  1
MATERIAL
  2
AcDbMaterial
  3
ObjectDBX Classes
 90
     1153
280
     0
281
     0
  0
CLASS
  1
VISUALSTYLE
  2
AcDbVisualStyle
  3
ObjectDBX Classes
 90
     4095
280
     0
281
     0
  0
CLASS
  1
DIMASSOC
  2
AcDbDimAssoc
  3
"AcDbDimAssoc|Product Desc:     AcDim ARX App For Dimension|Company:          Autodesk, Inc.|WEB Address:      www.autodesk.com"
 90
        0
280
     0
281
     0
  0
CLASS
  1
SORTENTSTABLE
  2
AcDbSortentsTable
  3
ObjectDBX Classes
 90
        0
280
     0
281
     0
  0
ENDSEC
  0
SECTION
  2
TABLES
  0
TABLE
  2
VPORT
  5
8
330
0
100
AcDbSymbolTable
 70
     1
  0
VPORT
  5
94
330
8
100
AcDbSymbolTableRecord
100
AcDbViewportTableRecord
  2
*Active
 70
     0
 10
0.0
 20
0.0
 11
1.0
 21
1.0
 12
146.3960080917215
 22
134.5018910623223
 13
0.0
 23
0.0
 14
0.5
 24
0.5
 15
0.5
 25
0.5
 16
0.0
 26
0.0
 36
1.0
 17
0.0
 27
0.0
 37
0.0
 40
263.1301898474902
 41
2.189852700490998
 42
50.0
 43
0.0
 44
0.0
 50
0.0
 51
0.0
 71
     0
 72
  1000
 73
     1
 74
     3
 75
     0
 76
     0
 77
     0
 78
     0
281
     0
 65
     1
110
0.0
120
0.0
130
0.0
111
1.0
121
0.0
131
0.0
112
0.0
122
1.0
132
0.0
 79
     0
146
0.0
  0
ENDTAB
  0
TABLE
  2
LTYPE
  5
5
330
0
100
AcDbSymbolTable
 70
     1
  0
LTYPE
  5
14
330
5
100
AcDbSymbolTableRecord
100
AcDbLinetypeTableRecord
  2
ByBlock
 70
     0
  3

 72
    65
 73
     0
 40
0.0
  0
LTYPE
  5
15
330
5
100
AcDbSymbolTableRecord
100
AcDbLinetypeTableRecord
  2
ByLayer
 70
     0
  3

 72
    65
 73
     0
 40
0.0
  0
LTYPE
  5
16
330
5
100
AcDbSymbolTableRecord
100
AcDbLinetypeTableRecord
  2
Continuous
 70
     0
  3
Solid line
 72
    65
 73
     0
 40
0.0
  0
ENDTAB
  0
TABLE
  2
LAYER
  5
2
102
{ACAD_XDICTIONARY
360
122
102
}
330
0
100
AcDbSymbolTable
 70
     2
  0
LAYER
  5
10
330
2
100
AcDbSymbolTableRecord
100
AcDbLayerTableRecord
  2
0
 70
     0
 62
     7
  6
Continuous
370
    -3
390
F
  0
LAYER
  5
11D
330
2
100
AcDbSymbolTableRecord
100
AcDbLayerTableRecord
  2
Defpoints
 70
     0
 62
     7
  6
Continuous
290
     0
370
    -3
390
F
  0
ENDTAB
  0
TABLE
  2
STYLE
  5
3
330
0
100
AcDbSymbolTable
 70
     2
  0
STYLE
  5
11
330
3
100
AcDbSymbolTableRecord
100
AcDbTextStyleTableRecord
  2
Standard
 70
     0
 40
0.0
 41
1.0
 50
0.0
 71
     0
 42
0.2
  3
txt
  4

  0
STYLE
  5
11E
330
3
100
AcDbSymbolTableRecord
100
AcDbTextStyleTableRecord
  2
Binh
 70
     0
 40
0.0
 41
1.0
 50
0.0
 71
     0
 42
25.0
  3

  4

1001
ACAD
1000
VNI-Helve-Condense
1071
        2
  0
ENDTAB
  0
TABLE
  2
VIEW
  5
6
330
0
100
AcDbSymbolTable
 70
     0
  0
ENDTAB
  0
TABLE
  2
UCS
  5
7
330
0
100
AcDbSymbolTable
 70
     0
  0
ENDTAB
  0
TABLE
  2
APPID
  5
9
330
0
100
AcDbSymbolTable
 70
     2
  0
APPID
  5
12
330
9
100
AcDbSymbolTableRecord
100
AcDbRegAppTableRecord
  2
ACAD
 70
     0
  0
APPID
  5
121
330
9
100
AcDbSymbolTableRecord
100
AcDbRegAppTableRecord
  2
ACAD_PSEXT
 70
     0
  0
ENDTAB
  0
TABLE
  2
DIMSTYLE
  5
A
330
0
100
AcDbSymbolTable
 70
     3
100
AcDbDimStyleTable
 71
     0
  0
DIMSTYLE
105
27
330
A
100
AcDbSymbolTableRecord
100
AcDbDimStyleTableRecord
  2
Standard
 70
     0
340
11
  0
DIMSTYLE
105
11F
330
A
100
AcDbSymbolTableRecord
100
AcDbDimStyleTableRecord
  2
SS
 70
     0
 40
1.5
 41
3.0
 42
2.0
 43
1.0
 44
2.0
 73
     0
 74
     0
 77
     1
140
3.0
147
0.5
176
     1
177
     1
178
     7
340
11
  0
DIMSTYLE
105
120
102
{ACAD_REACTORS
330
2EE
330
2F1
330
33F
330
342
330
345
330
346
330
347
330
348
330
518
330
51B
330
569
330
56C
330
56F
330
570
330
571
330
572
102
}
330
A
100
AcDbSymbolTableRecord
100
AcDbDimStyleTableRecord
  2
TRIEU
 70
     0
 40
0.5
 41
30.0
 42
0.0
 43
0.0
 44
20.0
 73
     0
 77
     3
 78
     8
140
30.0
141
0.0
146
0.0000052631578947
147
10.0
172
     1
174
     1
176
     8
177
     8
178
     3
271
     0
272
     0
275
     1
279
     2
284
     8
340
11E
342
B9
  0
ENDTAB
  0
TABLE
  2
BLOCK_RECORD
  5
1
330
0
100
AcDbSymbolTable
 70
    19
  0
BLOCK_RECORD
  5
1F
330
1
100
AcDbSymbolTableRecord
100
AcDbBlockTableRecord
  2
*Model_Space
340
22
  0
BLOCK_RECORD
  5
58
330
1
100
AcDbSymbolTableRecord
100
AcDbBlockTableRecord
  2
*Paper_Space
340
59
  0
BLOCK_RECORD
  5
5D
330
1
100
AcDbSymbolTableRecord
100
AcDbBlockTableRecord
  2
*Paper_Space0
340
5E
  0
BLOCK_RECORD
  5
B9
330
1
100
AcDbSymbolTableRecord
100
AcDbBlockTableRecord
  2
_Oblique
340
0
102
{BLKREFS
331
C2
331
C3
331
CE
331
CF
331
F2
331
F3
331
FE
331
FF
331
10A
331
10B
331
116
331
117
331
DA
331
DB
331
E6
331
E7
331
5B3
331
5B4
331
5BF
331
5C0
331
5D6
331
5D7
331
5DF
331
5E0
331
5E8
331
5E9
331
5F1
331
5F2
331
5FA
331
5FB
331
603
331
604
102
}
  0
BLOCK_RECORD
  5
BD
330
1
100
AcDbSymbolTableRecord
100
AcDbBlockTableRecord
  2
*D2
340
0
  0
BLOCK_RECORD
  5
C9
330
1
100
AcDbSymbolTableRecord
100
AcDbBlockTableRecord
  2
*D3
340
0
  0
BLOCK_RECORD
  5
D5
330
1
100
AcDbSymbolTableRecord
100
AcDbBlockTableRecord
  2
*D4
340
0
  0
BLOCK_RECORD
  5
E1
330
1
100
AcDbSymbolTableRecord
100
AcDbBlockTableRecord
  2
*D5
340
0
  0
BLOCK_RECORD
  5
ED
330
1
100
AcDbSymbolTableRecord
100
AcDbBlockTableRecord
  2
*D6
340
0
  0
BLOCK_RECORD
  5
F9
330
1
100
AcDbSymbolTableRecord
100
AcDbBlockTableRecord
  2
*D7
340
0
  0
BLOCK_RECORD
  5
105
330
1
100
AcDbSymbolTableRecord
100
AcDbBlockTableRecord
  2
*D8
340
0
  0
BLOCK_RECORD
  5
111
330
1
100
AcDbSymbolTableRecord
100
AcDbBlockTableRecord
  2
*D9
340
0
  0
BLOCK_RECORD
  5
573
330
1
100
AcDbSymbolTableRecord
100
AcDbBlockTableRecord
  2
*D11
340
0
  0
BLOCK_RECORD
  5
57F
330
1
100
AcDbSymbolTableRecord
100
AcDbBlockTableRecord
  2
*D12
340
0
  0
BLOCK_RECORD
  5
58B
330
1
100
AcDbSymbolTableRecord
100
AcDbBlockTableRecord
  2
*D13
340
0
  0
BLOCK_RECORD
  5
597
330
1
100
AcDbSymbolTableRecord
100
AcDbBlockTableRecord
  2
*D14
340
0
  0
BLOCK_RECORD
  5
5A3
330
1
100
AcDbSymbolTableRecord
100
AcDbBlockTableRecord
  2
*D15
340
0
  0
BLOCK_RECORD
  5
5AF
330
1
100
AcDbSymbolTableRecord
100
AcDbBlockTableRecord
  2
*D16
340
0
  0
BLOCK_RECORD
  5
5BB
330
1
100
AcDbSymbolTableRecord
100
AcDbBlockTableRecord
  2
*D17
340
0
  0
BLOCK_RECORD
  5
5C7
330
1
100
AcDbSymbolTableRecord
100
AcDbBlockTableRecord
  2
*D18
340
0
  0
ENDTAB
  0
ENDSEC
  0
SECTION
  2
BLOCKS
  0
BLOCK
  5
20
330
1F
100
AcDbEntity
  8
0
100
AcDbBlockBegin
  2
*Model_Space
 70
     0
 10
0.0
 20
0.0
 30
0.0
  3
*Model_Space
  1

  0
ENDBLK
  5
21
330
1F
100
AcDbEntity
  8
0
100
AcDbBlockEnd
  0
BLOCK
  5
5A
330
58
100
AcDbEntity
 67
     1
  8
0
100
AcDbBlockBegin
  2
*Paper_Space
 70
     0
 10
0.0
 20
0.0
 30
0.0
  3
*Paper_Space
  1

  0
ENDBLK
  5
5B
330
58
100
AcDbEntity
 67
     1
  8
0
100
AcDbBlockEnd
  0
BLOCK
  5
5F
330
5D
100
AcDbEntity
 67
     1
  8
0
100
AcDbBlockBegin
  2
*Paper_Space0
 70
     0
 10
0.0
 20
0.0
 30
0.0
  3
*Paper_Space0
  1

  0
ENDBLK
  5
60
330
5D
100
AcDbEntity
 67
     1
  8
0
100
AcDbBlockEnd
  0
BLOCK
  5
BA
330
B9
100
AcDbEntity
  8
0
100
AcDbBlockBegin
  2
_Oblique
 70
     0
 10
0.0
 20
0.0
 30
0.0
  3
_Oblique
  1

  0
LINE
  5
BB
330
B9
100
AcDbEntity
  8
0
  6
ByBlock
 62
     0
370
    -2
100
AcDbLine
 10
-0.5
 20
-0.5
 30
0.0
 11
0.5
 21
0.5
 31
0.0
  0
ENDBLK
  5
BC
330
B9
100
AcDbEntity
  8
0
100
AcDbBlockEnd
  0
BLOCK
  5
BE
330
BD
100
AcDbEntity
  8
0
370
    40
100
AcDbBlockBegin
  2
*D2
 70
     1
 10
0.0
 20
0.0
 30
0.0
  3
*D2
  1

  0
LINE
  5
BF
330
BD
100
AcDbEntity
  8
0
 62
     8
370
    -2
100
AcDbLine
 10
-285.779533787205
 20
-1373.686783252424
 30
0.0
 11
-285.779533787205
 21
-1351.782584940506
 31
0.0
  0
LINE
  5
C0
330
BD
100
AcDbEntity
  8
0
 62
     8
370
    -2
100
AcDbLine
 10
-167.2795337889293
 20
-1373.686783252424
 30
0.0
 11
-167.2795337889293
 21
-1351.782584940506
 31
0.0
  0
LINE
  5
C1
330
BD
100
AcDbEntity
  8
0
 62
     8
370
    -2
100
AcDbLine
 10
-285.779533787205
 20
-1361.782584940506
 30
0.0
 11
-167.2795337889293
 21
-1361.782584940506
 31
0.0
  0
INSERT
  5
C2
330
BD
100
AcDbEntity
  8
0
 62
     8
370
    -2
100
AcDbBlockReference
  2
_Oblique
 10
-285.779533787205
 20
-1361.782584940506
 30
0.0
 41
15.0
 42
15.0
 43
15.0
 50
180.0
  0
INSERT
  5
C3
330
BD
100
AcDbEntity
  8
0
 62
     8
370
    -2
100
AcDbBlockReference
  2
_Oblique
 10
-167.2795337889293
 20
-1361.782584940506
 30
0.0
 41
15.0
 42
15.0
 43
15.0
  0
MTEXT
  5
C4
330
BD
100
AcDbEntity
  8
0
 62
     3
370
    40
100
AcDbMText
 10
-226.5295337880671
 20
-1351.032334940506
 30
0.0
 40
15.0
 41
0.0
 71
     5
 72
     1
  1
\A1;{\H0.7667x;\C256;119}
  7
Binh
 73
     1
 44
1.0
1001
ACAD
1000
MTEXTBEGIN
1070
    73
1070
     1
1070
    44
1040
1.0
1070
    74
1070
     0
1000
MTEXTEND
  0
POINT
  5
C5
330
BD
100
AcDbEntity
  8
Defpoints
 62
     0
370
    40
100
AcDbPoint
 10
-285.779533787205
 20
-1373.686783252424
 30
0.0
  0
POINT
  5
C6
330
BD
100
AcDbEntity
  8
Defpoints
 62
     0
370
    40
100
AcDbPoint
 10
-167.2795337889293
 20
-1373.686783252424
 30
0.0
  0
POINT
  5
C7
330
BD
100
AcDbEntity
  8
Defpoints
 62
     0
370
    40
100
AcDbPoint
 10
-167.2795337889293
 20
-1361.782584940506
 30
0.0
  0
ENDBLK
  5
C8
330
BD
100
AcDbEntity
  8
0
370
    40
100
AcDbBlockEnd
  0
BLOCK
  5
CA
330
C9
100
AcDbEntity
  8
0
370
    40
100
AcDbBlockBegin
  2
*D3
 70
     1
 10
0.0
 20
0.0
 30
0.0
  3
*D3
  1

  0
LINE
  5
CB
330
C9
100
AcDbEntity
  8
0
 62
     8
370
    -2
100
AcDbLine
 10
-285.7795337872048
 20
-1427.686783252424
 30
0.0
 11
-308.9641184626016
 21
-1427.686783252424
 31
0.0
  0
LINE
  5
CC
330
C9
100
AcDbEntity
  8
0
 62
     8
370
    -2
100
AcDbLine
 10
-284.7795337872049
 20
-1372.686783252424
 30
0.0
 11
-308.9641184626016
 21
-1372.686783252424
 31
0.0
  0
LINE
  5
CD
330
C9
100
AcDbEntity
  8
0
 62
     8
370
    -2
100
AcDbLine
 10
-298.9641184626016
 20
-1427.686783252424
 30
0.0
 11
-298.9641184626016
 21
-1372.686783252424
 31
0.0
  0
INSERT
  5
CE
330
C9
100
AcDbEntity
  8
0
 62
     8
370
    -2
100
AcDbBlockReference
  2
_Oblique
 10
-298.9641184626016
 20
-1427.686783252424
 30
0.0
 41
15.0
 42
15.0
 43
15.0
 50
270.0
  0
INSERT
  5
CF
330
C9
100
AcDbEntity
  8
0
 62
     8
370
    -2
100
AcDbBlockReference
  2
_Oblique
 10
-298.9641184626016
 20
-1372.686783252424
 30
0.0
 41
15.0
 42
15.0
 43
15.0
 50
90.0
  0
MTEXT
  5
D0
330
C9
100
AcDbEntity
  8
0
 62
     3
370
    40
100
AcDbMText
 10
-309.7143684626015
 20
-1400.186783252424
 30
0.0
 40
15.0
 41
0.0
 71
     5
 72
     1
  1
\A1;{\H0.7667x;\C256;55}
  7
Binh
 11
0.0000000000000001
 21
1.0
 31
0.0
 73
     1
 44
1.0
1001
ACAD
1000
MTEXTBEGIN
1070
    73
1070
     1
1070
    44
1040
1.0
1070
    74
1070
     0
1000
MTEXTEND
  0
POINT
  5
D1
330
C9
100
AcDbEntity
  8
Defpoints
 62
     0
370
    40
100
AcDbPoint
 10
-285.7795337872048
 20
-1427.686783252424
 30
0.0
  0
POINT
  5
D2
330
C9
100
AcDbEntity
  8
Defpoints
 62
     0
370
    40
100
AcDbPoint
 10
-284.7795337872049
 20
-1372.686783252424
 30
0.0
  0
POINT
  5
D3
330
C9
100
AcDbEntity
  8
Defpoints
 62
     0
370
    40
100
AcDbPoint
 10
-298.9641184626016
 20
-1372.686783252424
 30
0.0
  0
ENDBLK
  5
D4
330
C9
100
AcDbEntity
  8
0
370
    40
100
AcDbBlockEnd
  0
BLOCK
  5
D6
330
D5
100
AcDbEntity
  8
0
370
    40
100
AcDbBlockBegin
  2
*D4
 70
     1
 10
0.0
 20
0.0
 30
0.0
  3
*D4
  1

  0
LINE
  5
D7
330
D5
100
AcDbEntity
  8
0
 62
     8
370
    -2
100
AcDbLine
 10
-141.8909548940082
 20
-1417.97334654545
 30
0.0
 11
-141.8909548940082
 21
-1351.782584940506
 31
0.0
  0
LINE
  5
D8
330
D5
100
AcDbEntity
  8
0
 62
     8
370
    -2
100
AcDbLine
 10
-17.89095489400819
 20
-1417.97334654545
 30
0.0
 11
-17.89095489400818
 21
-1351.782584940506
 31
0.0
  0
LINE
  5
D9
330
D5
100
AcDbEntity
  8
0
 62
     8
370
    -2
100
AcDbLine
 10
-141.8909548940082
 20
-1361.782584940506
 30
0.0
 11
-17.89095489400818
 21
-1361.782584940506
 31
0.0
  0
INSERT
  5
DA
330
D5
100
AcDbEntity
  8
0
 62
     8
370
    -2
100
AcDbBlockReference
  2
_Oblique
 10
-141.8909548940082
 20
-1361.782584940506
 30
0.0
 41
15.0
 42
15.0
 43
15.0
 50
180.0
  0
INSERT
  5
DB
330
D5
100
AcDbEntity
  8
0
 62
     8
370
    -2
100
AcDbBlockReference
  2
_Oblique
 10
-17.89095489400818
 20
-1361.782584940506
 30
0.0
 41
15.0
 42
15.0
 43
15.0
  0
MTEXT
  5
DC
330
D5
100
AcDbEntity
  8
0
 62
     3
370
    40
100
AcDbMText
 10
-79.89095489400819
 20
-1351.032334940506
 30
0.0
 40
15.0
 41
0.0
 71
     5
 72
     1
  1
\A1;{\H0.7667x;\C256;124}
  7
Binh
 73
     1
 44
1.0
1001
ACAD
1000
MTEXTBEGIN
1070
    73
1070
     1
1070
    44
1040
1.0
1070
    74
1070
     0
1000
MTEXTEND
  0
POINT
  5
DD
330
D5
100
AcDbEntity
  8
Defpoints
 62
     0
370
    40
100
AcDbPoint
 10
-141.8909548940082
 20
-1417.97334654545
 30
0.0
  0
POINT
  5
DE
330
D5
100
AcDbEntity
  8
Defpoints
 62
     0
370
    40
100
AcDbPoint
 10
-17.89095489400819
 20
-1417.97334654545
 30
0.0
  0
POINT
  5
DF
330
D5
100
AcDbEntity
  8
Defpoints
 62
     0
370
    40
100
AcDbPoint
 10
-17.89095489400818
 20
-1361.782584940506
 30
0.0
  0
ENDBLK
  5
E0
330
D5
100
AcDbEntity
  8
0
370
    40
100
AcDbBlockEnd
  0
BLOCK
  5
E2
330
E1
100
AcDbEntity
  8
0
370
    40
100
AcDbBlockBegin
  2
*D5
 70
     1
 10
0.0
 20
0.0
 30
0.0
  3
*D5
  1

  0
LINE
  5
E3
330
E1
100
AcDbEntity
  8
0
 62
     8
370
    -2
100
AcDbLine
 10
-51.89095489400794
 20
-1372.686783252424
 30
0.0
 11
18.39225685525898
 21
-1372.686783252424
 31
0.0
  0
LINE
  5
E4
330
E1
100
AcDbEntity
  8
0
 62
     8
370
    -2
100
AcDbLine
 10
-51.89095489400795
 20
-1427.686783252424
 30
0.0
 11
18.39225685525897
 21
-1427.686783252424
 31
0.0
  0
LINE
  5
E5
330
E1
100
AcDbEntity
  8
0
 62
     8
370
    -2
100
AcDbLine
 10
8.392256855258978
 20
-1372.686783252424
 30
0.0
 11
8.392256855258967
 21
-1427.686783252424
 31
0.0
  0
INSERT
  5
E6
330
E1
100
AcDbEntity
  8
0
 62
     8
370
    -2
100
AcDbBlockReference
  2
_Oblique
 10
8.392256855258978
 20
-1372.686783252424
 30
0.0
 41
15.0
 42
15.0
 43
15.0
 50
90.0
  0
INSERT
  5
E7
330
E1
100
AcDbEntity
  8
0
 62
     8
370
    -2
100
AcDbBlockReference
  2
_Oblique
 10
8.392256855258967
 20
-1427.686783252424
 30
0.0
 41
15.0
 42
15.0
 43
15.0
 50
270.0
  0
MTEXT
  5
E8
330
E1
100
AcDbEntity
  8
0
 62
     3
370
    40
100
AcDbMText
 10
-2.357993144740865
 20
-1400.186783252424
 30
0.0
 40
15.0
 41
0.0
 71
     5
 72
     1
  1
\A1;{\H0.7667x;\C256;55}
  7
Binh
 11
0.0000000000000001
 21
1.0
 31
0.0
 73
     1
 44
1.0
1001
ACAD
1000
MTEXTBEGIN
1070
    73
1070
     1
1070
    44
1040
1.0
1070
    74
1070
     0
1000
MTEXTEND
  0
POINT
  5
E9
330
E1
100
AcDbEntity
  8
Defpoints
 62
     0
370
    40
100
AcDbPoint
 10
-51.89095489400794
 20
-1372.686783252424
 30
0.0
  0
POINT
  5
EA
330
E1
100
AcDbEntity
  8
Defpoints
 62
     0
370
    40
100
AcDbPoint
 10
-51.89095489400795
 20
-1427.686783252424
 30
0.0
  0
POINT
  5
EB
330
E1
100
AcDbEntity
  8
Defpoints
 62
     0
370
    40
100
AcDbPoint
 10
8.392256855258967
 20
-1427.686783252424
 30
0.0
  0
ENDBLK
  5
EC
330
E1
100
AcDbEntity
  8
0
370
    40
100
AcDbBlockEnd
  0
BLOCK
  5
EE
330
ED
100
AcDbEntity
  8
0
370
    40
100
AcDbBlockBegin
  2
*D6
 70
     1
 10
0.0
 20
0.0
 30
0.0
  3
*D6
  1

  0
LINE
  5
EF
330
ED
100
AcDbEntity
  8
0
 62
     8
370
    -2
100
AcDbLine
 10
-167.2795337889292
 20
-1218.134309665419
 30
0.0
 11
-131.8909548940082
 21
-1218.134309665419
 31
0.0
  0
LINE
  5
F0
330
ED
100
AcDbEntity
  8
0
 62
     8
370
    -2
100
AcDbLine
 10
-167.2795337889292
 20
-1318.634309663957
 30
0.0
 11
-131.8909548940082
 21
-1318.634309663957
 31
0.0
  0
LINE
  5
F1
330
ED
100
AcDbEntity
  8
0
 62
     8
370
    -2
100
AcDbLine
 10
-141.8909548940082
 20
-1218.134309665419
 30
0.0
 11
-141.8909548940082
 21
-1318.634309663957
 31
0.0
  0
INSERT
  5
F2
330
ED
100
AcDbEntity
  8
0
 62
     8
370
    -2
100
AcDbBlockReference
  2
_Oblique
 10
-141.8909548940082
 20
-1218.134309665419
 30
0.0
 41
15.0
 42
15.0
 43
15.0
 50
90.0
  0
INSERT
  5
F3
330
ED
100
AcDbEntity
  8
0
 62
     8
370
    -2
100
AcDbBlockReference
  2
_Oblique
 10
-141.8909548940082
 20
-1318.634309663957
 30
0.0
 41
15.0
 42
15.0
 43
15.0
 50
270.0
  0
MTEXT
  5
F4
330
ED
100
AcDbEntity
  8
0
 62
     3
370
    40
100
AcDbMText
 10
-152.641204894008
 20
-1268.384309664688
 30
0.0
 40
15.0
 41
0.0
 71
     5
 72
     1
  1
\A1;{\H0.7667x;\C256;101}
  7
Binh
 11
0.0000000000000001
 21
1.0
 31
0.0
 73
     1
 44
1.0
1001
ACAD
1000
MTEXTBEGIN
1070
    73
1070
     1
1070
    44
1040
1.0
1070
    74
1070
     0
1000
MTEXTEND
  0
POINT
  5
F5
330
ED
100
AcDbEntity
  8
Defpoints
 62
     0
370
    40
100
AcDbPoint
 10
-167.2795337889292
 20
-1218.134309665419
 30
0.0
  0
POINT
  5
F6
330
ED
100
AcDbEntity
  8
Defpoints
 62
     0
370
    40
100
AcDbPoint
 10
-167.2795337889292
 20
-1318.634309663957
 30
0.0
  0
POINT
  5
F7
330
ED
100
AcDbEntity
  8
Defpoints
 62
     0
370
    40
100
AcDbPoint
 10
-141.8909548940082
 20
-1318.634309663957
 30
0.0
  0
ENDBLK
  5
F8
330
ED
100
AcDbEntity
  8
0
370
    40
100
AcDbBlockEnd
  0
BLOCK
  5
FA
330
F9
100
AcDbEntity
  8
0
370
    40
100
AcDbBlockBegin
  2
*D7
 70
     1
 10
0.0
 20
0.0
 30
0.0
  3
*D7
  1

  0
LINE
  5
FB
330
F9
100
AcDbEntity
  8
0
 62
     8
370
    -2
100
AcDbLine
 10
-176.0295337888019
 20
-1205.676740858248
 30
0.0
 11
-103.9203113832117
 21
-1205.676740858248
 31
0.0
  0
LINE
  5
FC
330
F9
100
AcDbEntity
  8
0
 62
     8
370
    -2
100
AcDbLine
 10
-176.0295337888019
 20
-1331.091878471099
 30
0.0
 11
-103.9203113832117
 21
-1331.091878471099
 31
0.0
  0
LINE
  5
FD
330
F9
100
AcDbEntity
  8
0
 62
     8
370
    -2
100
AcDbLine
 10
-113.9203113832117
 20
-1205.676740858248
 30
0.0
 11
-113.9203113832117
 21
-1331.091878471099
 31
0.0
  0
INSERT
  5
FE
330
F9
100
AcDbEntity
  8
0
 62
     8
370
    -2
100
AcDbBlockReference
  2
_Oblique
 10
-113.9203113832117
 20
-1205.676740858248
 30
0.0
 41
15.0
 42
15.0
 43
15.0
 50
90.0
  0
INSERT
  5
FF
330
F9
100
AcDbEntity
  8
0
 62
     8
370
    -2
100
AcDbBlockReference
  2
_Oblique
 10
-113.9203113832117
 20
-1331.091878471099
 30
0.0
 41
15.0
 42
15.0
 43
15.0
 50
270.0
  0
MTEXT
  5
100
330
F9
100
AcDbEntity
  8
0
 62
     3
370
    40
100
AcDbMText
 10
-124.6705613832116
 20
-1268.384309664673
 30
0.0
 40
15.0
 41
0.0
 71
     5
 72
     1
  1
\A1;{\H0.7667x;\C256;125}
  7
Binh
 11
0.0000000000000001
 21
1.0
 31
0.0
 73
     1
 44
1.0
1001
ACAD
1000
MTEXTBEGIN
1070
    73
1070
     1
1070
    44
1040
1.0
1070
    74
1070
     0
1000
MTEXTEND
  0
POINT
  5
101
330
F9
100
AcDbEntity
  8
Defpoints
 62
     0
370
    40
100
AcDbPoint
 10
-176.0295337888019
 20
-1205.676740858248
 30
0.0
  0
POINT
  5
102
330
F9
100
AcDbEntity
  8
Defpoints
 62
     0
370
    40
100
AcDbPoint
 10
-176.0295337888019
 20
-1331.091878471099
 30
0.0
  0
POINT
  5
103
330
F9
100
AcDbEntity
  8
Defpoints
 62
     0
370
    40
100
AcDbPoint
 10
-113.9203113832117
 20
-1331.091878471099
 30
0.0
  0
ENDBLK
  5
104
330
F9
100
AcDbEntity
  8
0
370
    40
100
AcDbBlockEnd
  0
BLOCK
  5
106
330
105
100
AcDbEntity
  8
0
370
    40
100
AcDbBlockBegin
  2
*D8
 70
     1
 10
0.0
 20
0.0
 30
0.0
  3
*D8
  1

  0
LINE
  5
107
330
105
100
AcDbEntity
  8
0
 62
     8
370
    -2
100
AcDbLine
 10
-278.0295337873177
 20
-1205.676740858248
 30
0.0
 11
-278.0295337873177
 21
-1185.265140510027
 31
0.0
  0
LINE
  5
108
330
105
100
AcDbEntity
  8
0
 62
     8
370
    -2
100
AcDbLine
 10
-176.029533788802
 20
-1205.735227096776
 30
0.0
 11
-176.029533788802
 21
-1185.265140510027
 31
0.0
  0
LINE
  5
109
330
105
100
AcDbEntity
  8
0
 62
     8
370
    -2
100
AcDbLine
 10
-278.0295337873177
 20
-1195.265140510027
 30
0.0
 11
-176.029533788802
 21
-1195.265140510027
 31
0.0
  0
INSERT
  5
10A
330
105
100
AcDbEntity
  8
0
 62
     8
370
    -2
100
AcDbBlockReference
  2
_Oblique
 10
-278.0295337873177
 20
-1195.265140510027
 30
0.0
 41
15.0
 42
15.0
 43
15.0
 50
180.0
  0
INSERT
  5
10B
330
105
100
AcDbEntity
  8
0
 62
     8
370
    -2
100
AcDbBlockReference
  2
_Oblique
 10
-176.029533788802
 20
-1195.265140510027
 30
0.0
 41
15.0
 42
15.0
 43
15.0
  0
MTEXT
  5
10C
330
105
100
AcDbEntity
  8
0
 62
     3
370
    40
100
AcDbMText
 10
-227.0295337880599
 20
-1184.514890510027
 30
0.0
 40
15.0
 41
0.0
 71
     5
 72
     1
  1
\A1;{\H0.7667x;\C256;102}
  7
Binh
 73
     1
 44
1.0
1001
ACAD
1000
MTEXTBEGIN
1070
    73
1070
     1
1070
    44
1040
1.0
1070
    74
1070
     0
1000
MTEXTEND
  0
POINT
  5
10D
330
105
100
AcDbEntity
  8
Defpoints
 62
     0
370
    40
100
AcDbPoint
 10
-278.0295337873177
 20
-1205.676740858248
 30
0.0
  0
POINT
  5
10E
330
105
100
AcDbEntity
  8
Defpoints
 62
     0
370
    40
100
AcDbPoint
 10
-176.029533788802
 20
-1205.735227096776
 30
0.0
  0
POINT
  5
10F
330
105
100
AcDbEntity
  8
Defpoints
 62
     0
370
    40
100
AcDbPoint
 10
-176.029533788802
 20
-1195.265140510027
 30
0.0
  0
ENDBLK
  5
110
330
105
100
AcDbEntity
  8
0
370
    40
100
AcDbBlockEnd
  0
BLOCK
  5
112
330
111
100
AcDbEntity
  8
0
370
    40
100
AcDbBlockBegin
  2
*D9
 70
     1
 10
0.0
 20
0.0
 30
0.0
  3
*D9
  1

  0
LINE
  5
113
330
111
100
AcDbEntity
  8
0
 62
     8
370
    -2
100
AcDbLine
 10
-285.7795337872049
 20
-1218.134309665419
 30
0.0
 11
-285.7795337872049
 21
-1164.30639608244
 31
0.0
  0
LINE
  5
114
330
111
100
AcDbEntity
  8
0
 62
     8
370
    -2
100
AcDbLine
 10
-167.2795337889293
 20
-1218.134309665419
 30
0.0
 11
-167.2795337889293
 21
-1164.30639608244
 31
0.0
  0
LINE
  5
115
330
111
100
AcDbEntity
  8
0
 62
     8
370
    -2
100
AcDbLine
 10
-285.7795337872049
 20
-1174.30639608244
 30
0.0
 11
-167.2795337889293
 21
-1174.30639608244
 31
0.0
  0
INSERT
  5
116
330
111
100
AcDbEntity
  8
0
 62
     8
370
    -2
100
AcDbBlockReference
  2
_Oblique
 10
-285.7795337872049
 20
-1174.30639608244
 30
0.0
 41
15.0
 42
15.0
 43
15.0
 50
180.0
  0
INSERT
  5
117
330
111
100
AcDbEntity
  8
0
 62
     8
370
    -2
100
AcDbBlockReference
  2
_Oblique
 10
-167.2795337889293
 20
-1174.30639608244
 30
0.0
 41
15.0
 42
15.0
 43
15.0
  0
MTEXT
  5
118
330
111
100
AcDbEntity
  8
0
 62
     3
370
    40
100
AcDbMText
 10
-226.5295337880671
 20
-1163.55614608244
 30
0.0
 40
15.0
 41
0.0
 71
     5
 72
     1
  1
\A1;{\H0.7667x;\C256;119}
  7
Binh
 73
     1
 44
1.0
1001
ACAD
1000
MTEXTBEGIN
1070
    73
1070
     1
1070
    44
1040
1.0
1070
    74
1070
     0
1000
MTEXTEND
  0
POINT
  5
119
330
111
100
AcDbEntity
  8
Defpoints
 62
     0
370
    40
100
AcDbPoint
 10
-285.7795337872049
 20
-1218.134309665419
 30
0.0
  0
POINT
  5
11A
330
111
100
AcDbEntity
  8
Defpoints
 62
     0
370
    40
100
AcDbPoint
 10
-167.2795337889293
 20
-1218.134309665419
 30
0.0
  0
POINT
  5
11B
330
111
100
AcDbEntity
  8
Defpoints
 62
     0
370
    40
100
AcDbPoint
 10
-167.2795337889293
 20
-1174.30639608244
 30
0.0
  0
ENDBLK
  5
11C
330
111
100
AcDbEntity
  8
0
370
    40
100
AcDbBlockEnd
  0
BLOCK
  5
57D
330
573
100
AcDbEntity
  8
0
100
AcDbBlockBegin
  2
*D11
 70
     1
 10
0.0
 20
0.0
 30
0.0
  3
*D11
  1

  0
LINE
  5
5D3
330
573
100
AcDbEntity
  8
0
 62
     8
370
    -2
100
AcDbLine
 10
185.5725443808994
 20
235.6314053938431
 30
0.0
 11
220.9611232758206
 21
235.6314053938431
 31
0.0
  0
LINE
  5
5D4
330
573
100
AcDbEntity
  8
0
 62
     8
370
    -2
100
AcDbLine
 10
185.5725443808995
 20
135.1314053953056
 30
0.0
 11
220.9611232758206
 21
135.1314053953055
 31
0.0
  0
LINE
  5
5D5
330
573
100
AcDbEntity
  8
0
 62
     8
370
    -2
100
AcDbLine
 10
210.9611232758206
 20
235.6314053938431
 30
0.0
 11
210.9611232758206
 21
135.1314053953055
 31
0.0
  0
INSERT
  5
5D6
330
573
100
AcDbEntity
  8
0
 62
     8
370
    -2
100
AcDbBlockReference
  2
_Oblique
 10
210.9611232758206
 20
235.6314053938431
 30
0.0
 41
15.0
 42
15.0
 43
15.0
 50
90.0
  0
INSERT
  5
5D7
330
573
100
AcDbEntity
  8
0
 62
     8
370
    -2
100
AcDbBlockReference
  2
_Oblique
 10
210.9611232758206
 20
135.1314053953055
 30
0.0
 41
15.0
 42
15.0
 43
15.0
 50
270.0
  0
MTEXT
  5
5D8
330
573
100
AcDbEntity
  8
0
 62
     3
370
    40
100
AcDbMText
 10
200.2108732758206
 20
185.3814053945744
 30
0.0
 40
15.0
 41
0.0
 71
     5
 72
     1
  1
\A1;{\H0.7667x;\C256;101}
  7
Binh
 11
0.0000000000000001
 21
1.0
 31
0.0
 73
     1
 44
1.0
1001
ACAD
1000
MTEXTBEGIN
1070
    73
1070
     1
1070
    44
1040
1.0
1070
    74
1070
     0
1000
MTEXTEND
  0
POINT
  5
5D9
330
573
100
AcDbEntity
  8
Defpoints
 62
     0
100
AcDbPoint
 10
185.5725443808994
 20
235.6314053938431
 30
0.0
  0
POINT
  5
5DA
330
573
100
AcDbEntity
  8
Defpoints
 62
     0
100
AcDbPoint
 10
185.5725443808995
 20
135.1314053953056
 30
0.0
  0
POINT
  5
5DB
330
573
100
AcDbEntity
  8
Defpoints
 62
     0
100
AcDbPoint
 10
210.9611232758206
 20
135.1314053953055
 30
0.0
  0
ENDBLK
  5
57E
330
573
100
AcDbEntity
  8
0
100
AcDbBlockEnd
  0
BLOCK
  5
589
330
57F
100
AcDbEntity
  8
0
100
AcDbBlockBegin
  2
*D12
 70
     1
 10
0.0
 20
0.0
 30
0.0
  3
*D12
  1

  0
LINE
  5
5DC
330
57F
100
AcDbEntity
  8
0
 62
     8
370
    -2
100
AcDbLine
 10
176.8225443810268
 20
248.0889742010145
 30
0.0
 11
248.9317667866171
 21
248.0889742010145
 31
0.0
  0
LINE
  5
5DD
330
57F
100
AcDbEntity
  8
0
 62
     8
370
    -2
100
AcDbLine
 10
176.8225443810268
 20
122.6738365881631
 30
0.0
 11
248.9317667866171
 21
122.6738365881631
 31
0.0
  0
LINE
  5
5DE
330
57F
100
AcDbEntity
  8
0
 62
     8
370
    -2
100
AcDbLine
 10
238.9317667866171
 20
248.0889742010145
 30
0.0
 11
238.931766786617
 21
122.6738365881631
 31
0.0
  0
INSERT
  5
5DF
330
57F
100
AcDbEntity
  8
0
 62
     8
370
    -2
100
AcDbBlockReference
  2
_Oblique
 10
238.9317667866171
 20
248.0889742010145
 30
0.0
 41
15.0
 42
15.0
 43
15.0
 50
90.0
  0
INSERT
  5
5E0
330
57F
100
AcDbEntity
  8
0
 62
     8
370
    -2
100
AcDbBlockReference
  2
_Oblique
 10
238.931766786617
 20
122.6738365881631
 30
0.0
 41
15.0
 42
15.0
 43
15.0
 50
270.0
  0
MTEXT
  5
5E1
330
57F
100
AcDbEntity
  8
0
 62
     3
370
    40
100
AcDbMText
 10
228.181516786617
 20
185.3814053945888
 30
0.0
 40
15.0
 41
0.0
 71
     5
 72
     1
  1
\A1;{\H0.7667x;\C256;125}
  7
Binh
 11
0.0000000000000001
 21
1.0
 31
0.0
 73
     1
 44
1.0
1001
ACAD
1000
MTEXTBEGIN
1070
    73
1070
     1
1070
    44
1040
1.0
1070
    74
1070
     0
1000
MTEXTEND
  0
POINT
  5
5E2
330
57F
100
AcDbEntity
  8
Defpoints
 62
     0
100
AcDbPoint
 10
176.8225443810268
 20
248.0889742010145
 30
0.0
  0
POINT
  5
5E3
330
57F
100
AcDbEntity
  8
Defpoints
 62
     0
100
AcDbPoint
 10
176.8225443810268
 20
122.6738365881631
 30
0.0
  0
POINT
  5
5E4
330
57F
100
AcDbEntity
  8
Defpoints
 62
     0
100
AcDbPoint
 10
238.931766786617
 20
122.6738365881631
 30
0.0
  0
ENDBLK
  5
58A
330
57F
100
AcDbEntity
  8
0
100
AcDbBlockEnd
  0
BLOCK
  5
595
330
58B
100
AcDbEntity
  8
0
100
AcDbBlockBegin
  2
*D13
 70
     1
 10
0.0
 20
0.0
 30
0.0
  3
*D13
  1

  0
LINE
  5
5E5
330
58B
100
AcDbEntity
  8
0
 62
     8
370
    -2
100
AcDbLine
 10
74.82254438251114
 20
248.0889742010145
 30
0.0
 11
74.82254438251114
 21
268.5005745492353
 31
0.0
  0
LINE
  5
5E6
330
58B
100
AcDbEntity
  8
0
 62
     8
370
    -2
100
AcDbLine
 10
176.8225443810268
 20
248.0304879624859
 30
0.0
 11
176.8225443810268
 21
268.5005745492353
 31
0.0
  0
LINE
  5
5E7
330
58B
100
AcDbEntity
  8
0
 62
     8
370
    -2
100
AcDbLine
 10
74.82254438251114
 20
258.5005745492353
 30
0.0
 11
176.8225443810268
 21
258.5005745492353
 31
0.0
  0
INSERT
  5
5E8
330
58B
100
AcDbEntity
  8
0
 62
     8
370
    -2
100
AcDbBlockReference
  2
_Oblique
 10
74.82254438251114
 20
258.5005745492353
 30
0.0
 41
15.0
 42
15.0
 43
15.0
 50
180.0
  0
INSERT
  5
5E9
330
58B
100
AcDbEntity
  8
0
 62
     8
370
    -2
100
AcDbBlockReference
  2
_Oblique
 10
176.8225443810268
 20
258.5005745492353
 30
0.0
 41
15.0
 42
15.0
 43
15.0
  0
MTEXT
  5
5EA
330
58B
100
AcDbEntity
  8
0
 62
     3
370
    40
100
AcDbMText
 10
125.822544381769
 20
269.2508245492354
 30
0.0
 40
15.0
 41
0.0
 71
     5
 72
     1
  1
\A1;{\H0.7667x;\C256;102}
  7
Binh
 73
     1
 44
1.0
1001
ACAD
1000
MTEXTBEGIN
1070
    73
1070
     1
1070
    44
1040
1.0
1070
    74
1070
     0
1000
MTEXTEND
  0
POINT
  5
5EB
330
58B
100
AcDbEntity
  8
Defpoints
 62
     0
100
AcDbPoint
 10
74.82254438251114
 20
248.0889742010145
 30
0.0
  0
POINT
  5
5EC
330
58B
100
AcDbEntity
  8
Defpoints
 62
     0
100
AcDbPoint
 10
176.8225443810268
 20
248.0304879624859
 30
0.0
  0
POINT
  5
5ED
330
58B
100
AcDbEntity
  8
Defpoints
 62
     0
100
AcDbPoint
 10
176.8225443810268
 20
258.5005745492353
 30
0.0
  0
ENDBLK
  5
596
330
58B
100
AcDbEntity
  8
0
100
AcDbBlockEnd
  0
BLOCK
  5
5A1
330
597
100
AcDbEntity
  8
0
100
AcDbBlockBegin
  2
*D14
 70
     1
 10
0.0
 20
0.0
 30
0.0
  3
*D14
  1

  0
LINE
  5
5EE
330
597
100
AcDbEntity
  8
0
 62
     8
370
    -2
100
AcDbLine
 10
67.07254438262392
 20
235.6314053938431
 30
0.0
 11
67.07254438262392
 21
289.459318976822
 31
0.0
  0
LINE
  5
5EF
330
597
100
AcDbEntity
  8
0
 62
     8
370
    -2
100
AcDbLine
 10
185.5725443808995
 20
235.6314053938431
 30
0.0
 11
185.5725443808995
 21
289.459318976822
 31
0.0
  0
LINE
  5
5F0
330
597
100
AcDbEntity
  8
0
 62
     8
370
    -2
100
AcDbLine
 10
67.07254438262392
 20
279.4593189768221
 30
0.0
 11
185.5725443808995
 21
279.4593189768221
 31
0.0
  0
INSERT
  5
5F1
330
597
100
AcDbEntity
  8
0
 62
     8
370
    -2
100
AcDbBlockReference
  2
_Oblique
 10
67.07254438262392
 20
279.4593189768221
 30
0.0
 41
15.0
 42
15.0
 43
15.0
 50
180.0
  0
INSERT
  5
5F2
330
597
100
AcDbEntity
  8
0
 62
     8
370
    -2
100
AcDbBlockReference
  2
_Oblique
 10
185.5725443808995
 20
279.4593189768221
 30
0.0
 41
15.0
 42
15.0
 43
15.0
  0
MTEXT
  5
5F3
330
597
100
AcDbEntity
  8
0
 62
     3
370
    40
100
AcDbMText
 10
126.3225443817617
 20
290.209568976822
 30
0.0
 40
15.0
 41
0.0
 71
     5
 72
     1
  1
\A1;{\H0.7667x;\C256;119}
  7
Binh
 73
     1
 44
1.0
1001
ACAD
1000
MTEXTBEGIN
1070
    73
1070
     1
1070
    44
1040
1.0
1070
    74
1070
     0
1000
MTEXTEND
  0
POINT
  5
5F4
330
597
100
AcDbEntity
  8
Defpoints
 62
     0
100
AcDbPoint
 10
67.07254438262392
 20
235.6314053938431
 30
0.0
  0
POINT
  5
5F5
330
597
100
AcDbEntity
  8
Defpoints
 62
     0
100
AcDbPoint
 10
185.5725443808995
 20
235.6314053938431
 30
0.0
  0
POINT
  5
5F6
330
597
100
AcDbEntity
  8
Defpoints
 62
     0
100
AcDbPoint
 10
185.5725443808995
 20
279.4593189768221
 30
0.0
  0
ENDBLK
  5
5A2
330
597
100
AcDbEntity
  8
0
100
AcDbBlockEnd
  0
BLOCK
  5
5AD
330
5A3
100
AcDbEntity
  8
0
100
AcDbBlockBegin
  2
*D15
 70
     1
 10
0.0
 20
0.0
 30
0.0
  3
*D15
  1

  0
LINE
  5
5F7
330
5A3
100
AcDbEntity
  8
0
 62
     8
370
    -2
100
AcDbLine
 10
67.0725443826239
 20
80.0789318068381
 30
0.0
 11
67.0725443826239
 21
101.9831301187558
 31
0.0
  0
LINE
  5
5F8
330
5A3
100
AcDbEntity
  8
0
 62
     8
370
    -2
100
AcDbLine
 10
185.5725443808996
 20
80.0789318068381
 30
0.0
 11
185.5725443808996
 21
101.9831301187558
 31
0.0
  0
LINE
  5
5F9
330
5A3
100
AcDbEntity
  8
0
 62
     8
370
    -2
100
AcDbLine
 10
67.0725443826239
 20
91.98313011875585
 30
0.0
 11
185.5725443808996
 21
91.98313011875585
 31
0.0
  0
INSERT
  5
5FA
330
5A3
100
AcDbEntity
  8
0
 62
     8
370
    -2
100
AcDbBlockReference
  2
_Oblique
 10
67.0725443826239
 20
91.98313011875585
 30
0.0
 41
15.0
 42
15.0
 43
15.0
 50
180.0
  0
INSERT
  5
5FB
330
5A3
100
AcDbEntity
  8
0
 62
     8
370
    -2
100
AcDbBlockReference
  2
_Oblique
 10
185.5725443808996
 20
91.98313011875585
 30
0.0
 41
15.0
 42
15.0
 43
15.0
  0
MTEXT
  5
5FC
330
5A3
100
AcDbEntity
  8
0
 62
     3
370
    40
100
AcDbMText
 10
126.3225443817617
 20
102.7333801187558
 30
0.0
 40
15.0
 41
0.0
 71
     5
 72
     1
  1
\A1;{\H0.7667x;\C256;119}
  7
Binh
 73
     1
 44
1.0
1001
ACAD
1000
MTEXTBEGIN
1070
    73
1070
     1
1070
    44
1040
1.0
1070
    74
1070
     0
1000
MTEXTEND
  0
POINT
  5
5FD
330
5A3
100
AcDbEntity
  8
Defpoints
 62
     0
100
AcDbPoint
 10
67.0725443826239
 20
80.0789318068381
 30
0.0
  0
POINT
  5
5FE
330
5A3
100
AcDbEntity
  8
Defpoints
 62
     0
100
AcDbPoint
 10
185.5725443808996
 20
80.0789318068381
 30
0.0
  0
POINT
  5
5FF
330
5A3
100
AcDbEntity
  8
Defpoints
 62
     0
100
AcDbPoint
 10
185.5725443808996
 20
91.98313011875585
 30
0.0
  0
ENDBLK
  5
5AE
330
5A3
100
AcDbEntity
  8
0
100
AcDbBlockEnd
  0
BLOCK
  5
5B9
330
5AF
100
AcDbEntity
  8
0
100
AcDbBlockBegin
  2
*D16
 70
     1
 10
0.0
 20
0.0
 30
0.0
  3
*D16
  1

  0
LINE
  5
5B0
330
5AF
100
AcDbEntity
  8
0
 62
     8
370
    -2
100
AcDbLine
 10
67.07254438262386
 20
26.07893180683777
 30
0.0
 11
43.88795970722719
 21
26.07893180683777
 31
0.0
  0
LINE
  5
5B1
330
5AF
100
AcDbEntity
  8
0
 62
     8
370
    -2
100
AcDbLine
 10
68.07254438262386
 20
81.07893180683777
 30
0.0
 11
43.8879597072272
 21
81.07893180683777
 31
0.0
  0
LINE
  5
5B2
330
5AF
100
AcDbEntity
  8
0
 62
     8
370
    -2
100
AcDbLine
 10
53.88795970722719
 20
26.07893180683777
 30
0.0
 11
53.8879597072272
 21
81.07893180683777
 31
0.0
  0
INSERT
  5
5B3
330
5AF
100
AcDbEntity
  8
0
 62
     8
370
    -2
100
AcDbBlockReference
  2
_Oblique
 10
53.88795970722719
 20
26.07893180683777
 30
0.0
 41
15.0
 42
15.0
 43
15.0
 50
270.0
  0
INSERT
  5
5B4
330
5AF
100
AcDbEntity
  8
0
 62
     8
370
    -2
100
AcDbBlockReference
  2
_Oblique
 10
53.8879597072272
 20
81.07893180683777
 30
0.0
 41
15.0
 42
15.0
 43
15.0
 50
90.0
  0
MTEXT
  5
5B5
330
5AF
100
AcDbEntity
  8
0
 62
     3
370
    40
100
AcDbMText
 10
43.13770970722718
 20
53.57893180683778
 30
0.0
 40
15.0
 41
0.0
 71
     5
 72
     1
  1
\A1;{\H0.7667x;\C256;55}
  7
Binh
 11
0.0000000000000001
 21
1.0
 31
0.0
 73
     1
 44
1.0
1001
ACAD
1000
MTEXTBEGIN
1070
    73
1070
     1
1070
    44
1040
1.0
1070
    74
1070
     0
1000
MTEXTEND
  0
POINT
  5
5B6
330
5AF
100
AcDbEntity
  8
Defpoints
 62
     0
100
AcDbPoint
 10
67.07254438262386
 20
26.07893180683777
 30
0.0
  0
POINT
  5
5B7
330
5AF
100
AcDbEntity
  8
Defpoints
 62
     0
100
AcDbPoint
 10
68.07254438262386
 20
81.07893180683777
 30
0.0
  0
POINT
  5
5B8
330
5AF
100
AcDbEntity
  8
Defpoints
 62
     0
100
AcDbPoint
 10
53.8879597072272
 20
81.07893180683777
 30
0.0
  0
ENDBLK
  5
5BA
330
5AF
100
AcDbEntity
  8
0
100
AcDbBlockEnd
  0
BLOCK
  5
5C5
330
5BB
100
AcDbEntity
  8
0
100
AcDbBlockBegin
  2
*D17
 70
     1
 10
0.0
 20
0.0
 30
0.0
  3
*D17
  1

  0
LINE
  5
5BC
330
5BB
100
AcDbEntity
  8
0
 62
     8
370
    -2
100
AcDbLine
 10
210.9611232758206
 20
35.79236851381256
 30
0.0
 11
210.9611232758206
 21
101.9831301187555
 31
0.0
  0
LINE
  5
5BD
330
5BB
100
AcDbEntity
  8
0
 62
     8
370
    -2
100
AcDbLine
 10
334.9611232758206
 20
35.79236851381256
 30
0.0
 11
334.9611232758206
 21
101.9831301187555
 31
0.0
  0
LINE
  5
5BE
330
5BB
100
AcDbEntity
  8
0
 62
     8
370
    -2
100
AcDbLine
 10
210.9611232758206
 20
91.98313011875553
 30
0.0
 11
334.9611232758206
 21
91.98313011875553
 31
0.0
  0
INSERT
  5
5BF
330
5BB
100
AcDbEntity
  8
0
 62
     8
370
    -2
100
AcDbBlockReference
  2
_Oblique
 10
210.9611232758206
 20
91.98313011875553
 30
0.0
 41
15.0
 42
15.0
 43
15.0
 50
180.0
  0
INSERT
  5
5C0
330
5BB
100
AcDbEntity
  8
0
 62
     8
370
    -2
100
AcDbBlockReference
  2
_Oblique
 10
334.9611232758206
 20
91.98313011875553
 30
0.0
 41
15.0
 42
15.0
 43
15.0
  0
MTEXT
  5
5C1
330
5BB
100
AcDbEntity
  8
0
 62
     3
370
    40
100
AcDbMText
 10
272.9611232758206
 20
102.7333801187555
 30
0.0
 40
15.0
 41
0.0
 71
     5
 72
     1
  1
\A1;{\H0.7667x;\C256;124}
  7
Binh
 73
     1
 44
1.0
1001
ACAD
1000
MTEXTBEGIN
1070
    73
1070
     1
1070
    44
1040
1.0
1070
    74
1070
     0
1000
MTEXTEND
  0
POINT
  5
5C2
330
5BB
100
AcDbEntity
  8
Defpoints
 62
     0
100
AcDbPoint
 10
210.9611232758206
 20
35.79236851381256
 30
0.0
  0
POINT
  5
5C3
330
5BB
100
AcDbEntity
  8
Defpoints
 62
     0
100
AcDbPoint
 10
334.9611232758206
 20
35.79236851381256
 30
0.0
  0
POINT
  5
5C4
330
5BB
100
AcDbEntity
  8
Defpoints
 62
     0
100
AcDbPoint
 10
334.9611232758206
 20
91.98313011875553
 30
0.0
  0
ENDBLK
  5
5C6
330
5BB
100
AcDbEntity
  8
0
100
AcDbBlockEnd
  0
BLOCK
  5
5D1
330
5C7
100
AcDbEntity
  8
0
100
AcDbBlockBegin
  2
*D18
 70
     1
 10
0.0
 20
0.0
 30
0.0
  3
*D18
  1

  0
LINE
  5
600
330
5C7
100
AcDbEntity
  8
0
 62
     8
370
    -2
100
AcDbLine
 10
300.9611232758208
 20
81.07893180683776
 30
0.0
 11
371.2443350250881
 21
81.07893180683774
 31
0.0
  0
LINE
  5
601
330
5C7
100
AcDbEntity
  8
0
 62
     8
370
    -2
100
AcDbLine
 10
300.9611232758208
 20
26.07893180683776
 30
0.0
 11
371.2443350250881
 21
26.07893180683774
 31
0.0
  0
LINE
  5
602
330
5C7
100
AcDbEntity
  8
0
 62
     8
370
    -2
100
AcDbLine
 10
361.2443350250881
 20
81.07893180683774
 30
0.0
 11
361.2443350250881
 21
26.07893180683774
 31
0.0
  0
INSERT
  5
603
330
5C7
100
AcDbEntity
  8
0
 62
     8
370
    -2
100
AcDbBlockReference
  2
_Oblique
 10
361.2443350250881
 20
81.07893180683774
 30
0.0
 41
15.0
 42
15.0
 43
15.0
 50
90.0
  0
INSERT
  5
604
330
5C7
100
AcDbEntity
  8
0
 62
     8
370
    -2
100
AcDbBlockReference
  2
_Oblique
 10
361.2443350250881
 20
26.07893180683774
 30
0.0
 41
15.0
 42
15.0
 43
15.0
 50
270.0
  0
MTEXT
  5
605
330
5C7
100
AcDbEntity
  8
0
 62
     3
370
    40
100
AcDbMText
 10
350.4940850250881
 20
53.57893180683781
 30
0.0
 40
15.0
 41
0.0
 71
     5
 72
     1
  1
\A1;{\H0.7667x;\C256;55}
  7
Binh
 11
0.0000000000000001
 21
1.0
 31
0.0
 73
     1
 44
1.0
1001
ACAD
1000
MTEXTBEGIN
1070
    73
1070
     1
1070
    44
1040
1.0
1070
    74
1070
     0
1000
MTEXTEND
  0
POINT
  5
606
330
5C7
100
AcDbEntity
  8
Defpoints
 62
     0
100
AcDbPoint
 10
300.9611232758208
 20
81.07893180683776
 30
0.0
  0
POINT
  5
607
330
5C7
100
AcDbEntity
  8
Defpoints
 62
     0
100
AcDbPoint
 10
300.9611232758208
 20
26.07893180683776
 30
0.0
  0
POINT
  5
608
330
5C7
100
AcDbEntity
  8
Defpoints
 62
     0
100
AcDbPoint
 10
361.2443350250881
 20
26.07893180683774
 30
0.0
  0
ENDBLK
  5
5D2
330
5C7
100
AcDbEntity
  8
0
100
AcDbBlockEnd
  0
ENDSEC
  0
SECTION
  2
ENTITIES
  0
LWPOLYLINE
  5
34F
330
1F
100
AcDbEntity
  8
0
100
AcDbPolyline
 90
        2
 70
     0
 43
0.0
 10
67.07254438262392
 20
135.1314053938431
 10
67.07254438262392
 20
235.6314053938431
  0
LWPOLYLINE
  5
350
330
1F
100
AcDbEntity
  8
0
100
AcDbPolyline
 90
        2
 70
     0
 43
0.0
 10
185.5725443826239
 20
235.6314053938431
 10
185.5725443826239
 20
135.1314053938431
  0
LWPOLYLINE
  5
351
330
1F
100
AcDbEntity
  8
0
 62
     4
100
AcDbPolyline
 90
        4
 70
     0
 43
0.0
 10
74.82254438262391
 20
235.6795705314578
 10
74.82254438262391
 20
248.0786531002652
 10
176.8225443826239
 20
248.0786531002652
 10
176.8225443826239
 20
235.6795705314578
  0
LWPOLYLINE
  5
352
330
1F
100
AcDbEntity
  8
0
 62
     4
100
AcDbPolyline
 90
        3
 70
     0
 43
0.0
 10
176.8225443826238
 20
122.7323228250359
 10
115.6225443826238
 20
122.7323228250359
 10
115.6225443826238
 20
135.1314053938433
  0
LWPOLYLINE
  5
353
330
1F
100
AcDbEntity
  8
0
 62
     4
100
AcDbPolyline
 90
        4
 70
     0
 43
0.0
 10
74.82254438262391
 20
235.6795705314578
 10
74.82254438262391
 20
236.3814053938431
 10
176.8225443826239
 20
236.3814053938431
 10
176.8225443826239
 20
235.6795705314578
  0
LWPOLYLINE
  5
354
330
1F
100
AcDbEntity
  8
0
 62
     4
100
AcDbPolyline
 90
        2
 70
     0
 43
0.0
 10
105.4225443826239
 20
134.429570531458
 10
74.82254438262391
 20
134.429570531458
  0
LWPOLYLINE
  5
355
330
1F
100
AcDbEntity
  8
0
 62
     4
100
AcDbPolyline
 90
        3
 70
     0
 43
0.0
 10
176.8225443826238
 20
134.429570531458
 10
115.6225443826238
 20
134.429570531458
 10
115.6225443826238
 20
135.1314053938433
  0
LWPOLYLINE
  5
356
330
1F
100
AcDbEntity
  8
0
100
AcDbPolyline
 90
        2
 70
     0
 43
0.0
 10
67.07254438262392
 20
145.3814053938431
 10
67.07254438262392
 20
225.3814053938431
  0
LWPOLYLINE
  5
357
330
1F
100
AcDbEntity
  8
0
100
AcDbPolyline
 90
        2
 70
     0
 43
0.0
 10
73.52829563650273
 20
225.3814053938431
 10
178.5282956365026
 20
225.3814053938431
  0
LWPOLYLINE
  5
358
330
1F
100
AcDbEntity
  8
0
100
AcDbPolyline
 90
        2
 70
     0
 43
0.0
 10
185.5725443826239
 20
225.3814053938431
 10
185.5725443826239
 20
145.3814053938431
  0
LWPOLYLINE
  5
359
330
1F
100
AcDbEntity
  8
0
100
AcDbPolyline
 90
        2
 70
     0
 43
0.0
 10
178.5282956365026
 20
145.3814053938431
 10
175.5282956365026
 20
145.3814053938431
  0
LWPOLYLINE
  5
35A
330
1F
100
AcDbEntity
  8
0
100
AcDbPolyline
 90
        2
 70
     0
 43
0.0
 10
172.5282956365026
 20
145.3814053938431
 10
169.5282956365026
 20
145.3814053938431
  0
LWPOLYLINE
  5
35B
330
1F
100
AcDbEntity
  8
0
100
AcDbPolyline
 90
        2
 70
     0
 43
0.0
 10
166.5282956365026
 20
145.3814053938431
 10
163.5282956365026
 20
145.3814053938431
  0
LWPOLYLINE
  5
35C
330
1F
100
AcDbEntity
  8
0
100
AcDbPolyline
 90
        2
 70
     0
 43
0.0
 10
160.5282956365026
 20
145.3814053938431
 10
157.5282956365026
 20
145.3814053938431
  0
LWPOLYLINE
  5
35D
330
1F
100
AcDbEntity
  8
0
100
AcDbPolyline
 90
        2
 70
     0
 43
0.0
 10
154.5282956365026
 20
145.3814053938431
 10
151.5282956365026
 20
145.3814053938431
  0
LWPOLYLINE
  5
35E
330
1F
100
AcDbEntity
  8
0
100
AcDbPolyline
 90
        2
 70
     0
 43
0.0
 10
148.5282956365026
 20
145.3814053938431
 10
145.5282956365026
 20
145.3814053938431
  0
LWPOLYLINE
  5
35F
330
1F
100
AcDbEntity
  8
0
100
AcDbPolyline
 90
        2
 70
     0
 43
0.0
 10
142.5282956365026
 20
145.3814053938431
 10
139.5282956365026
 20
145.3814053938431
  0
LWPOLYLINE
  5
360
330
1F
100
AcDbEntity
  8
0
100
AcDbPolyline
 90
        2
 70
     0
 43
0.0
 10
136.5282956365026
 20
145.3814053938431
 10
133.5282956365026
 20
145.3814053938431
  0
LWPOLYLINE
  5
361
330
1F
100
AcDbEntity
  8
0
100
AcDbPolyline
 90
        2
 70
     0
 43
0.0
 10
130.5282956365026
 20
145.3814053938431
 10
127.5282956365026
 20
145.3814053938431
  0
LWPOLYLINE
  5
362
330
1F
100
AcDbEntity
  8
0
100
AcDbPolyline
 90
        2
 70
     0
 43
0.0
 10
124.5282956365026
 20
145.3814053938431
 10
121.5282956365026
 20
145.3814053938431
  0
LWPOLYLINE
  5
363
330
1F
100
AcDbEntity
  8
0
100
AcDbPolyline
 90
        2
 70
     0
 43
0.0
 10
118.5282956365026
 20
145.3814053938431
 10
115.5282956365026
 20
145.3814053938431
  0
LWPOLYLINE
  5
364
330
1F
100
AcDbEntity
  8
0
100
AcDbPolyline
 90
        2
 70
     0
 43
0.0
 10
112.5282956365026
 20
145.3814053938431
 10
109.5282956365026
 20
145.3814053938431
  0
LWPOLYLINE
  5
365
330
1F
100
AcDbEntity
  8
0
100
AcDbPolyline
 90
        2
 70
     0
 43
0.0
 10
106.5282956365026
 20
145.3814053938431
 10
103.5282956365026
 20
145.3814053938431
  0
LWPOLYLINE
  5
366
330
1F
100
AcDbEntity
  8
0
100
AcDbPolyline
 90
        2
 70
     0
 43
0.0
 10
100.5282956365026
 20
145.3814053938431
 10
97.52829563650262
 20
145.3814053938431
  0
LWPOLYLINE
  5
367
330
1F
100
AcDbEntity
  8
0
100
AcDbPolyline
 90
        2
 70
     0
 43
0.0
 10
94.52829563650261
 20
145.3814053938431
 10
91.52829563650263
 20
145.3814053938431
  0
LWPOLYLINE
  5
368
330
1F
100
AcDbEntity
  8
0
100
AcDbPolyline
 90
        2
 70
     0
 43
0.0
 10
88.52829563650267
 20
145.3814053938431
 10
85.52829563650268
 20
145.3814053938431
  0
LWPOLYLINE
  5
369
330
1F
100
AcDbEntity
  8
0
100
AcDbPolyline
 90
        2
 70
     0
 43
0.0
 10
82.52829563650267
 20
145.3814053938431
 10
79.52829563650268
 20
145.3814053938431
  0
LWPOLYLINE
  5
36A
330
1F
100
AcDbEntity
  8
0
100
AcDbPolyline
 90
        2
 70
     0
 43
0.0
 10
76.52829563650268
 20
145.3814053938431
 10
73.52829563650267
 20
145.3814053938431
  0
LWPOLYLINE
  5
36B
330
1F
100
AcDbEntity
  8
0
100
AcDbPolyline
 90
        4
 70
     1
 43
0.0
 10
67.07254438262392
 20
135.1314053938431
 10
67.07254438262392
 20
235.6314053938431
 10
185.5725443826239
 20
235.6314053938431
 10
185.5725443826239
 20
135.1314053938431
  0
LWPOLYLINE
  5
36C
330
1F
100
AcDbEntity
  8
0
100
AcDbPolyline
 90
        4
 70
     1
 43
0.0
 10
67.07254438262392
 20
155.8814053938431
 10
67.07254438262392
 20
214.8814053938431
 10
185.5725443826239
 20
214.8814053938431
 10
185.5725443826239
 20
155.8814053938431
  0
LWPOLYLINE
  5
36D
330
1F
100
AcDbEntity
  8
0
 62
     4
100
AcDbPolyline
 90
        4
 70
     1
 43
0.0
 10
74.82254438262391
 20
240.6509008066871
 10
74.82254438262391
 20
248.1371393387974
 10
176.8225443826239
 20
248.1371393387974
 10
176.8225443826239
 20
240.6509008066871
  0
LWPOLYLINE
  5
36E
330
1F
100
AcDbEntity
  8
0
 62
     4
100
AcDbPolyline
 90
        4
 70
     1
 43
0.0
 10
74.82254438262391
 20
240.6509008066871
 10
74.82254438262391
 20
248.1371393387974
 10
79.92254438262399
 20
248.1371393387974
 10
79.92254438262399
 20
240.6509008066871
  0
CIRCLE
  5
36F
330
1F
100
AcDbEntity
  8
0
 62
     4
100
AcDbCircle
 10
77.37254438262393
 20
244.3647769534762
 30
0.0
 40
1.871559633027523
  0
LWPOLYLINE
  5
370
330
1F
100
AcDbEntity
  8
0
 62
     4
100
AcDbPolyline
 90
        4
 70
     1
 43
0.0
 10
78.40707705397041
 20
245.7940508157501
 10
78.89232811598249
 20
245.2610687727413
 10
76.33801171127744
 20
242.9355030912022
 10
75.85276064926542
 20
243.468485134211
  0
LWPOLYLINE
  5
371
330
1F
100
AcDbEntity
  8
0
 62
     4
100
AcDbPolyline
 90
        4
 70
     1
 43
0.0
 10
79.92254438262399
 20
240.6509008066871
 10
79.92254438262399
 20
248.1371393387974
 10
85.0225443826239
 20
248.1371393387974
 10
85.0225443826239
 20
240.6509008066871
  0
CIRCLE
  5
372
330
1F
100
AcDbEntity
  8
0
 62
     4
100
AcDbCircle
 10
82.47254438262395
 20
244.3647769534762
 30
0.0
 40
1.871559633027523
  0
LWPOLYLINE
  5
373
330
1F
100
AcDbEntity
  8
0
 62
     4
100
AcDbPolyline
 90
        4
 70
     1
 43
0.0
 10
83.50707705397043
 20
245.7940508157501
 10
83.99232811598245
 20
245.2610687727413
 10
81.43801171127746
 20
242.9355030912022
 10
80.95276064926538
 20
243.468485134211
  0
LWPOLYLINE
  5
374
330
1F
100
AcDbEntity
  8
0
 62
     4
100
AcDbPolyline
 90
        4
 70
     1
 43
0.0
 10
85.0225443826239
 20
240.6509008066871
 10
85.0225443826239
 20
248.1371393387974
 10
90.12254438262393
 20
248.1371393387974
 10
90.12254438262393
 20
240.6509008066871
  0
CIRCLE
  5
375
330
1F
100
AcDbEntity
  8
0
 62
     4
100
AcDbCircle
 10
87.57254438262391
 20
244.3647769534762
 30
0.0
 40
1.871559633027523
  0
LWPOLYLINE
  5
376
330
1F
100
AcDbEntity
  8
0
 62
     4
100
AcDbPolyline
 90
        4
 70
     1
 43
0.0
 10
88.6070770539704
 20
245.7940508157501
 10
89.09232811598249
 20
245.2610687727413
 10
86.53801171127744
 20
242.9355030912022
 10
86.05276064926535
 20
243.468485134211
  0
LWPOLYLINE
  5
377
330
1F
100
AcDbEntity
  8
0
 62
     4
100
AcDbPolyline
 90
        4
 70
     1
 43
0.0
 10
90.12254438262393
 20
240.6509008066871
 10
90.12254438262393
 20
248.1371393387974
 10
95.22254438262395
 20
248.1371393387974
 10
95.22254438262395
 20
240.6509008066871
  0
CIRCLE
  5
378
330
1F
100
AcDbEntity
  8
0
 62
     4
100
AcDbCircle
 10
92.67254438262389
 20
244.3647769534762
 30
0.0
 40
1.871559633027523
  0
LWPOLYLINE
  5
379
330
1F
100
AcDbEntity
  8
0
 62
     4
100
AcDbPolyline
 90
        4
 70
     1
 43
0.0
 10
93.70707705397036
 20
245.7940508157501
 10
94.19232811598256
 20
245.2610687727413
 10
91.6380117112774
 20
242.9355030912022
 10
91.15276064926538
 20
243.468485134211
  0
LWPOLYLINE
  5
37A
330
1F
100
AcDbEntity
  8
0
 62
     4
100
AcDbPolyline
 90
        4
 70
     1
 43
0.0
 10
95.22254438262395
 20
240.6509008066871
 10
95.22254438262395
 20
248.1371393387974
 10
100.3225443826239
 20
248.1371393387974
 10
100.3225443826239
 20
240.6509008066871
  0
CIRCLE
  5
37B
330
1F
100
AcDbEntity
  8
0
 62
     4
100
AcDbCircle
 10
97.7725443826239
 20
244.3647769534762
 30
0.0
 40
1.871559633027523
  0
LWPOLYLINE
  5
37C
330
1F
100
AcDbEntity
  8
0
 62
     4
100
AcDbPolyline
 90
        4
 70
     1
 43
0.0
 10
98.80707705397044
 20
245.7940508157501
 10
99.2923281159825
 20
245.2610687727413
 10
96.73801171127749
 20
242.9355030912022
 10
96.2527606492654
 20
243.468485134211
  0
LWPOLYLINE
  5
37D
330
1F
100
AcDbEntity
  8
0
 62
     4
100
AcDbPolyline
 90
        4
 70
     1
 43
0.0
 10
100.3225443826239
 20
240.6509008066871
 10
100.3225443826239
 20
248.1371393387974
 10
105.4225443826238
 20
248.1371393387974
 10
105.4225443826238
 20
240.6509008066871
  0
CIRCLE
  5
37E
330
1F
100
AcDbEntity
  8
0
 62
     4
100
AcDbCircle
 10
102.8725443826239
 20
244.3647769534762
 30
0.0
 40
1.871559633027523
  0
LWPOLYLINE
  5
37F
330
1F
100
AcDbEntity
  8
0
 62
     4
100
AcDbPolyline
 90
        4
 70
     1
 43
0.0
 10
103.9070770539704
 20
245.7940508157501
 10
104.3923281159824
 20
245.2610687727413
 10
101.8380117112774
 20
242.9355030912022
 10
101.3527606492653
 20
243.468485134211
  0
LWPOLYLINE
  5
380
330
1F
100
AcDbEntity
  8
0
 62
     4
100
AcDbPolyline
 90
        4
 70
     1
 43
0.0
 10
105.4225443826238
 20
240.6509008066871
 10
105.4225443826238
 20
248.1371393387974
 10
110.5225443826239
 20
248.1371393387974
 10
110.5225443826239
 20
240.6509008066871
  0
CIRCLE
  5
381
330
1F
100
AcDbEntity
  8
0
 62
     4
100
AcDbCircle
 10
107.972544382624
 20
244.3647769534762
 30
0.0
 40
1.871559633027523
  0
LWPOLYLINE
  5
382
330
1F
100
AcDbEntity
  8
0
 62
     4
100
AcDbPolyline
 90
        4
 70
     1
 43
0.0
 10
109.0070770539704
 20
245.7940508157501
 10
109.4923281159825
 20
245.2610687727413
 10
106.9380117112774
 20
242.9355030912022
 10
106.4527606492654
 20
243.468485134211
  0
LWPOLYLINE
  5
383
330
1F
100
AcDbEntity
  8
0
 62
     4
100
AcDbPolyline
 90
        4
 70
     1
 43
0.0
 10
110.5225443826239
 20
240.6509008066871
 10
110.5225443826239
 20
248.1371393387974
 10
115.6225443826239
 20
248.1371393387974
 10
115.6225443826239
 20
240.6509008066871
  0
CIRCLE
  5
384
330
1F
100
AcDbEntity
  8
0
 62
     4
100
AcDbCircle
 10
113.0725443826239
 20
244.3647769534762
 30
0.0
 40
1.871559633027523
  0
LWPOLYLINE
  5
385
330
1F
100
AcDbEntity
  8
0
 62
     4
100
AcDbPolyline
 90
        4
 70
     1
 43
0.0
 10
114.1070770539703
 20
245.7940508157501
 10
114.5923281159825
 20
245.2610687727413
 10
112.0380117112775
 20
242.9355030912022
 10
111.5527606492653
 20
243.468485134211
  0
LWPOLYLINE
  5
386
330
1F
100
AcDbEntity
  8
0
 62
     4
100
AcDbPolyline
 90
        4
 70
     1
 43
0.0
 10
115.6225443826239
 20
240.6509008066871
 10
115.6225443826239
 20
248.1371393387974
 10
120.7225443826239
 20
248.1371393387974
 10
120.7225443826239
 20
240.6509008066871
  0
CIRCLE
  5
387
330
1F
100
AcDbEntity
  8
0
 62
     4
100
AcDbCircle
 10
118.1725443826238
 20
244.3647769534762
 30
0.0
 40
1.871559633027523
  0
LWPOLYLINE
  5
388
330
1F
100
AcDbEntity
  8
0
 62
     4
100
AcDbPolyline
 90
        4
 70
     1
 43
0.0
 10
119.2070770539704
 20
245.7940508157501
 10
119.6923281159825
 20
245.2610687727413
 10
117.1380117112774
 20
242.9355030912022
 10
116.6527606492653
 20
243.468485134211
  0
LWPOLYLINE
  5
389
330
1F
100
AcDbEntity
  8
0
 62
     4
100
AcDbPolyline
 90
        4
 70
     1
 43
0.0
 10
120.7225443826239
 20
240.6509008066871
 10
120.7225443826239
 20
248.1371393387974
 10
125.8225443826239
 20
248.1371393387974
 10
125.8225443826239
 20
240.6509008066871
  0
CIRCLE
  5
38A
330
1F
100
AcDbEntity
  8
0
 62
     4
100
AcDbCircle
 10
123.2725443826239
 20
244.3647769534762
 30
0.0
 40
1.871559633027523
  0
LWPOLYLINE
  5
38B
330
1F
100
AcDbEntity
  8
0
 62
     4
100
AcDbPolyline
 90
        4
 70
     1
 43
0.0
 10
124.3070770539704
 20
245.7940508157501
 10
124.7923281159825
 20
245.2610687727413
 10
122.2380117112775
 20
242.9355030912022
 10
121.7527606492654
 20
243.468485134211
  0
LWPOLYLINE
  5
38C
330
1F
100
AcDbEntity
  8
0
 62
     4
100
AcDbPolyline
 90
        4
 70
     1
 43
0.0
 10
125.8225443826239
 20
240.6509008066871
 10
125.8225443826239
 20
248.1371393387974
 10
130.9225443826238
 20
248.1371393387974
 10
130.9225443826238
 20
240.6509008066871
  0
CIRCLE
  5
38D
330
1F
100
AcDbEntity
  8
0
 62
     4
100
AcDbCircle
 10
128.3725443826239
 20
244.3647769534762
 30
0.0
 40
1.871559633027523
  0
LWPOLYLINE
  5
38E
330
1F
100
AcDbEntity
  8
0
 62
     4
100
AcDbPolyline
 90
        4
 70
     1
 43
0.0
 10
129.4070770539704
 20
245.7940508157501
 10
129.8923281159824
 20
245.2610687727413
 10
127.3380117112774
 20
242.9355030912022
 10
126.8527606492654
 20
243.468485134211
  0
LWPOLYLINE
  5
38F
330
1F
100
AcDbEntity
  8
0
 62
     4
100
AcDbPolyline
 90
        4
 70
     1
 43
0.0
 10
130.922544382624
 20
240.6509008066871
 10
130.922544382624
 20
248.1371393387974
 10
136.0225443826239
 20
248.1371393387974
 10
136.0225443826239
 20
240.6509008066871
  0
CIRCLE
  5
390
330
1F
100
AcDbEntity
  8
0
 62
     4
100
AcDbCircle
 10
133.472544382624
 20
244.3647769534762
 30
0.0
 40
1.871559633027523
  0
LWPOLYLINE
  5
391
330
1F
100
AcDbEntity
  8
0
 62
     4
100
AcDbPolyline
 90
        4
 70
     1
 43
0.0
 10
134.5070770539704
 20
245.7940508157501
 10
134.9923281159825
 20
245.2610687727413
 10
132.4380117112774
 20
242.9355030912022
 10
131.9527606492653
 20
243.468485134211
  0
LWPOLYLINE
  5
392
330
1F
100
AcDbEntity
  8
0
 62
     4
100
AcDbPolyline
 90
        4
 70
     1
 43
0.0
 10
136.0225443826239
 20
240.6509008066871
 10
136.0225443826239
 20
248.1371393387974
 10
141.1225443826239
 20
248.1371393387974
 10
141.1225443826239
 20
240.6509008066871
  0
CIRCLE
  5
393
330
1F
100
AcDbEntity
  8
0
 62
     4
100
AcDbCircle
 10
138.5725443826239
 20
244.3647769534762
 30
0.0
 40
1.871559633027523
  0
LWPOLYLINE
  5
394
330
1F
100
AcDbEntity
  8
0
 62
     4
100
AcDbPolyline
 90
        4
 70
     1
 43
0.0
 10
139.6070770539703
 20
245.7940508157501
 10
140.0923281159825
 20
245.2610687727413
 10
137.5380117112775
 20
242.9355030912022
 10
137.0527606492653
 20
243.468485134211
  0
LWPOLYLINE
  5
395
330
1F
100
AcDbEntity
  8
0
 62
     4
100
AcDbPolyline
 90
        4
 70
     1
 43
0.0
 10
141.1225443826239
 20
240.6509008066871
 10
141.1225443826239
 20
248.1371393387974
 10
146.222544382624
 20
248.1371393387974
 10
146.222544382624
 20
240.6509008066871
  0
CIRCLE
  5
396
330
1F
100
AcDbEntity
  8
0
 62
     4
100
AcDbCircle
 10
143.6725443826238
 20
244.3647769534762
 30
0.0
 40
1.871559633027523
  0
LWPOLYLINE
  5
397
330
1F
100
AcDbEntity
  8
0
 62
     4
100
AcDbPolyline
 90
        4
 70
     1
 43
0.0
 10
144.7070770539704
 20
245.7940508157501
 10
145.1923281159825
 20
245.2610687727413
 10
142.6380117112775
 20
242.9355030912022
 10
142.1527606492653
 20
243.468485134211
  0
LWPOLYLINE
  5
398
330
1F
100
AcDbEntity
  8
0
 62
     4
100
AcDbPolyline
 90
        4
 70
     1
 43
0.0
 10
146.222544382624
 20
240.6509008066871
 10
146.222544382624
 20
248.1371393387974
 10
151.3225443826239
 20
248.1371393387974
 10
151.3225443826239
 20
240.6509008066871
  0
CIRCLE
  5
399
330
1F
100
AcDbEntity
  8
0
 62
     4
100
AcDbCircle
 10
148.7725443826239
 20
244.3647769534762
 30
0.0
 40
1.871559633027523
  0
LWPOLYLINE
  5
39A
330
1F
100
AcDbEntity
  8
0
 62
     4
100
AcDbPolyline
 90
        4
 70
     1
 43
0.0
 10
149.8070770539704
 20
245.7940508157501
 10
150.2923281159824
 20
245.2610687727413
 10
147.7380117112774
 20
242.9355030912022
 10
147.2527606492654
 20
243.468485134211
  0
LWPOLYLINE
  5
39B
330
1F
100
AcDbEntity
  8
0
 62
     4
100
AcDbPolyline
 90
        4
 70
     1
 43
0.0
 10
151.3225443826239
 20
240.6509008066871
 10
151.3225443826239
 20
248.1371393387974
 10
156.4225443826239
 20
248.1371393387974
 10
156.4225443826239
 20
240.6509008066871
  0
CIRCLE
  5
39C
330
1F
100
AcDbEntity
  8
0
 62
     4
100
AcDbCircle
 10
153.8725443826239
 20
244.3647769534762
 30
0.0
 40
1.871559633027523
  0
LWPOLYLINE
  5
39D
330
1F
100
AcDbEntity
  8
0
 62
     4
100
AcDbPolyline
 90
        4
 70
     1
 43
0.0
 10
154.9070770539704
 20
245.7940508157501
 10
155.3923281159824
 20
245.2610687727413
 10
152.8380117112773
 20
242.9355030912022
 10
152.3527606492654
 20
243.468485134211
  0
LWPOLYLINE
  5
39E
330
1F
100
AcDbEntity
  8
0
 62
     4
100
AcDbPolyline
 90
        4
 70
     1
 43
0.0
 10
156.4225443826239
 20
240.6509008066871
 10
156.4225443826239
 20
248.1371393387974
 10
161.5225443826239
 20
248.1371393387974
 10
161.5225443826239
 20
240.6509008066871
  0
CIRCLE
  5
39F
330
1F
100
AcDbEntity
  8
0
 62
     4
100
AcDbCircle
 10
158.9725443826239
 20
244.3647769534762
 30
0.0
 40
1.871559633027523
  0
LWPOLYLINE
  5
3A0
330
1F
100
AcDbEntity
  8
0
 62
     4
100
AcDbPolyline
 90
        4
 70
     1
 43
0.0
 10
160.0070770539703
 20
245.7940508157501
 10
160.4923281159824
 20
245.2610687727413
 10
157.9380117112774
 20
242.9355030912022
 10
157.4527606492653
 20
243.468485134211
  0
LWPOLYLINE
  5
3A1
330
1F
100
AcDbEntity
  8
0
 62
     4
100
AcDbPolyline
 90
        4
 70
     1
 43
0.0
 10
161.5225443826239
 20
240.6509008066871
 10
161.5225443826239
 20
248.1371393387974
 10
166.6225443826239
 20
248.1371393387974
 10
166.6225443826239
 20
240.6509008066871
  0
CIRCLE
  5
3A2
330
1F
100
AcDbEntity
  8
0
 62
     4
100
AcDbCircle
 10
164.0725443826239
 20
244.3647769534762
 30
0.0
 40
1.871559633027523
  0
LWPOLYLINE
  5
3A3
330
1F
100
AcDbEntity
  8
0
 62
     4
100
AcDbPolyline
 90
        4
 70
     1
 43
0.0
 10
165.1070770539704
 20
245.7940508157501
 10
165.5923281159825
 20
245.2610687727413
 10
163.0380117112774
 20
242.9355030912022
 10
162.5527606492653
 20
243.468485134211
  0
LWPOLYLINE
  5
3A4
330
1F
100
AcDbEntity
  8
0
 62
     4
100
AcDbPolyline
 90
        4
 70
     1
 43
0.0
 10
166.6225443826239
 20
240.6509008066871
 10
166.6225443826239
 20
248.1371393387974
 10
171.7225443826239
 20
248.1371393387974
 10
171.7225443826239
 20
240.6509008066871
  0
CIRCLE
  5
3A5
330
1F
100
AcDbEntity
  8
0
 62
     4
100
AcDbCircle
 10
169.1725443826239
 20
244.3647769534762
 30
0.0
 40
1.871559633027523
  0
LWPOLYLINE
  5
3A6
330
1F
100
AcDbEntity
  8
0
 62
     4
100
AcDbPolyline
 90
        4
 70
     1
 43
0.0
 10
170.2070770539703
 20
245.7940508157501
 10
170.6923281159825
 20
245.2610687727413
 10
168.1380117112775
 20
242.9355030912022
 10
167.6527606492653
 20
243.468485134211
  0
LWPOLYLINE
  5
3A7
330
1F
100
AcDbEntity
  8
0
 62
     4
100
AcDbPolyline
 90
        4
 70
     1
 43
0.0
 10
171.7225443826239
 20
240.6509008066871
 10
171.7225443826239
 20
248.1371393387974
 10
176.8225443826239
 20
248.1371393387974
 10
176.8225443826239
 20
240.6509008066871
  0
CIRCLE
  5
3A8
330
1F
100
AcDbEntity
  8
0
 62
     4
100
AcDbCircle
 10
174.2725443826238
 20
244.3647769534762
 30
0.0
 40
1.871559633027523
  0
LWPOLYLINE
  5
3A9
330
1F
100
AcDbEntity
  8
0
 62
     4
100
AcDbPolyline
 90
        4
 70
     1
 43
0.0
 10
175.3070770539703
 20
245.7940508157501
 10
175.7923281159824
 20
245.2610687727413
 10
173.2380117112774
 20
242.9355030912022
 10
172.7527606492654
 20
243.468485134211
  0
LWPOLYLINE
  5
3AA
330
1F
100
AcDbEntity
  8
0
 62
     4
100
AcDbPolyline
 90
        4
 70
     0
 43
0.0
 10
176.8225443826238
 20
130.1600751186138
 10
115.6225443826238
 20
130.160075118614
 10
115.6225443826238
 20
122.6738365865037
 10
176.8225443826238
 20
122.6738365865037
  0
LWPOLYLINE
  5
3AB
330
1F
100
AcDbEntity
  8
0
 62
     4
100
AcDbPolyline
 90
        4
 70
     1
 43
0.0
 10
115.6225443826238
 20
130.160075118614
 10
115.6225443826238
 20
122.6738365865037
 10
120.7225443826238
 20
122.6738365865037
 10
120.7225443826238
 20
130.160075118614
  0
CIRCLE
  5
3AC
330
1F
100
AcDbEntity
  8
0
 62
     4
100
AcDbCircle
 10
118.1725443826238
 20
126.4461989718249
 30
0.0
 40
1.871559633027523
  0
LWPOLYLINE
  5
3AD
330
1F
100
AcDbEntity
  8
0
 62
     4
100
AcDbPolyline
 90
        4
 70
     1
 43
0.0
 10
119.2070770539703
 20
125.016925109551
 10
119.6923281159824
 20
125.5499071525598
 10
117.1380117112773
 20
127.8754728340989
 10
116.6527606492652
 20
127.3424907910901
  0
LWPOLYLINE
  5
3AE
330
1F
100
AcDbEntity
  8
0
 62
     4
100
AcDbPolyline
 90
        4
 70
     1
 43
0.0
 10
120.7225443826238
 20
130.160075118614
 10
120.7225443826238
 20
122.6738365865037
 10
125.8225443826238
 20
122.6738365865037
 10
125.8225443826238
 20
130.160075118614
  0
CIRCLE
  5
3AF
330
1F
100
AcDbEntity
  8
0
 62
     4
100
AcDbCircle
 10
123.2725443826237
 20
126.4461989718249
 30
0.0
 40
1.871559633027523
  0
LWPOLYLINE
  5
3B0
330
1F
100
AcDbEntity
  8
0
 62
     4
100
AcDbPolyline
 90
        4
 70
     1
 43
0.0
 10
124.3070770539703
 20
125.016925109551
 10
124.7923281159824
 20
125.5499071525598
 10
122.2380117112773
 20
127.8754728340989
 10
121.7527606492653
 20
127.3424907910901
  0
LWPOLYLINE
  5
3B1
330
1F
100
AcDbEntity
  8
0
 62
     4
100
AcDbPolyline
 90
        4
 70
     1
 43
0.0
 10
125.8225443826238
 20
130.160075118614
 10
125.8225443826238
 20
122.6738365865037
 10
130.9225443826238
 20
122.6738365865037
 10
130.9225443826238
 20
130.160075118614
  0
CIRCLE
  5
3B2
330
1F
100
AcDbEntity
  8
0
 62
     4
100
AcDbCircle
 10
128.3725443826238
 20
126.4461989718249
 30
0.0
 40
1.871559633027523
  0
LWPOLYLINE
  5
3B3
330
1F
100
AcDbEntity
  8
0
 62
     4
100
AcDbPolyline
 90
        4
 70
     1
 43
0.0
 10
129.4070770539702
 20
125.016925109551
 10
129.8923281159823
 20
125.5499071525598
 10
127.3380117112773
 20
127.8754728340989
 10
126.8527606492652
 20
127.3424907910901
  0
LWPOLYLINE
  5
3B4
330
1F
100
AcDbEntity
  8
0
 62
     4
100
AcDbPolyline
 90
        4
 70
     1
 43
0.0
 10
130.9225443826238
 20
130.160075118614
 10
130.9225443826238
 20
122.6738365865037
 10
136.0225443826238
 20
122.6738365865037
 10
136.0225443826238
 20
130.160075118614
  0
CIRCLE
  5
3B5
330
1F
100
AcDbEntity
  8
0
 62
     4
100
AcDbCircle
 10
133.4725443826237
 20
126.4461989718249
 30
0.0
 40
1.871559633027523
  0
LWPOLYLINE
  5
3B6
330
1F
100
AcDbEntity
  8
0
 62
     4
100
AcDbPolyline
 90
        4
 70
     1
 43
0.0
 10
134.5070770539703
 20
125.016925109551
 10
134.9923281159823
 20
125.5499071525598
 10
132.4380117112773
 20
127.8754728340989
 10
131.9527606492652
 20
127.3424907910901
  0
LWPOLYLINE
  5
3B7
330
1F
100
AcDbEntity
  8
0
 62
     4
100
AcDbPolyline
 90
        4
 70
     1
 43
0.0
 10
136.0225443826238
 20
130.160075118614
 10
136.0225443826238
 20
122.6738365865037
 10
141.1225443826238
 20
122.6738365865037
 10
141.1225443826238
 20
130.160075118614
  0
CIRCLE
  5
3B8
330
1F
100
AcDbEntity
  8
0
 62
     4
100
AcDbCircle
 10
138.5725443826238
 20
126.4461989718249
 30
0.0
 40
1.871559633027523
  0
LWPOLYLINE
  5
3B9
330
1F
100
AcDbEntity
  8
0
 62
     4
100
AcDbPolyline
 90
        4
 70
     1
 43
0.0
 10
139.6070770539703
 20
125.016925109551
 10
140.0923281159824
 20
125.5499071525598
 10
137.5380117112772
 20
127.8754728340989
 10
137.0527606492653
 20
127.3424907910901
  0
LWPOLYLINE
  5
3BA
330
1F
100
AcDbEntity
  8
0
 62
     4
100
AcDbPolyline
 90
        4
 70
     1
 43
0.0
 10
141.1225443826238
 20
130.160075118614
 10
141.1225443826238
 20
122.6738365865037
 10
146.2225443826237
 20
122.6738365865037
 10
146.2225443826237
 20
130.160075118614
  0
CIRCLE
  5
3BB
330
1F
100
AcDbEntity
  8
0
 62
     4
100
AcDbCircle
 10
143.6725443826238
 20
126.4461989718249
 30
0.0
 40
1.871559633027523
  0
LWPOLYLINE
  5
3BC
330
1F
100
AcDbEntity
  8
0
 62
     4
100
AcDbPolyline
 90
        4
 70
     1
 43
0.0
 10
144.7070770539703
 20
125.016925109551
 10
145.1923281159823
 20
125.5499071525598
 10
142.6380117112773
 20
127.8754728340989
 10
142.1527606492652
 20
127.3424907910901
  0
LWPOLYLINE
  5
3BD
330
1F
100
AcDbEntity
  8
0
 62
     4
100
AcDbPolyline
 90
        4
 70
     1
 43
0.0
 10
146.2225443826237
 20
130.160075118614
 10
146.2225443826237
 20
122.6738365865037
 10
151.3225443826238
 20
122.6738365865037
 10
151.3225443826238
 20
130.160075118614
  0
CIRCLE
  5
3BE
330
1F
100
AcDbEntity
  8
0
 62
     4
100
AcDbCircle
 10
148.7725443826237
 20
126.4461989718249
 30
0.0
 40
1.871559633027523
  0
LWPOLYLINE
  5
3BF
330
1F
100
AcDbEntity
  8
0
 62
     4
100
AcDbPolyline
 90
        4
 70
     1
 43
0.0
 10
149.8070770539703
 20
125.016925109551
 10
150.2923281159823
 20
125.5499071525598
 10
147.7380117112773
 20
127.8754728340989
 10
147.2527606492652
 20
127.3424907910901
  0
LWPOLYLINE
  5
3C0
330
1F
100
AcDbEntity
  8
0
 62
     4
100
AcDbPolyline
 90
        4
 70
     1
 43
0.0
 10
151.3225443826238
 20
130.160075118614
 10
151.3225443826238
 20
122.6738365865037
 10
156.4225443826238
 20
122.6738365865037
 10
156.4225443826238
 20
130.160075118614
  0
CIRCLE
  5
3C1
330
1F
100
AcDbEntity
  8
0
 62
     4
100
AcDbCircle
 10
153.8725443826238
 20
126.4461989718249
 30
0.0
 40
1.871559633027523
  0
LWPOLYLINE
  5
3C2
330
1F
100
AcDbEntity
  8
0
 62
     4
100
AcDbPolyline
 90
        4
 70
     1
 43
0.0
 10
154.9070770539702
 20
125.016925109551
 10
155.3923281159823
 20
125.5499071525598
 10
152.8380117112773
 20
127.8754728340989
 10
152.3527606492652
 20
127.3424907910901
  0
LWPOLYLINE
  5
3C3
330
1F
100
AcDbEntity
  8
0
 62
     4
100
AcDbPolyline
 90
        4
 70
     1
 43
0.0
 10
156.4225443826238
 20
130.160075118614
 10
156.4225443826238
 20
122.6738365865037
 10
161.5225443826237
 20
122.6738365865037
 10
161.5225443826237
 20
130.160075118614
  0
CIRCLE
  5
3C4
330
1F
100
AcDbEntity
  8
0
 62
     4
100
AcDbCircle
 10
158.9725443826237
 20
126.4461989718249
 30
0.0
 40
1.871559633027523
  0
LWPOLYLINE
  5
3C5
330
1F
100
AcDbEntity
  8
0
 62
     4
100
AcDbPolyline
 90
        4
 70
     1
 43
0.0
 10
160.0070770539702
 20
125.016925109551
 10
160.4923281159823
 20
125.5499071525598
 10
157.9380117112773
 20
127.8754728340989
 10
157.4527606492652
 20
127.3424907910901
  0
LWPOLYLINE
  5
3C6
330
1F
100
AcDbEntity
  8
0
 62
     4
100
AcDbPolyline
 90
        4
 70
     1
 43
0.0
 10
161.5225443826237
 20
130.160075118614
 10
161.5225443826237
 20
122.6738365865037
 10
166.6225443826238
 20
122.6738365865037
 10
166.6225443826238
 20
130.160075118614
  0
CIRCLE
  5
3C7
330
1F
100
AcDbEntity
  8
0
 62
     4
100
AcDbCircle
 10
164.0725443826238
 20
126.4461989718249
 30
0.0
 40
1.871559633027523
  0
LWPOLYLINE
  5
3C8
330
1F
100
AcDbEntity
  8
0
 62
     4
100
AcDbPolyline
 90
        4
 70
     1
 43
0.0
 10
165.1070770539703
 20
125.016925109551
 10
165.5923281159824
 20
125.5499071525598
 10
163.0380117112772
 20
127.8754728340989
 10
162.5527606492653
 20
127.3424907910901
  0
LWPOLYLINE
  5
3C9
330
1F
100
AcDbEntity
  8
0
 62
     4
100
AcDbPolyline
 90
        4
 70
     1
 43
0.0
 10
166.6225443826238
 20
130.160075118614
 10
166.6225443826238
 20
122.6738365865037
 10
171.7225443826237
 20
122.6738365865037
 10
171.7225443826237
 20
130.160075118614
  0
CIRCLE
  5
3CA
330
1F
100
AcDbEntity
  8
0
 62
     4
100
AcDbCircle
 10
169.1725443826238
 20
126.4461989718249
 30
0.0
 40
1.871559633027523
  0
LWPOLYLINE
  5
3CB
330
1F
100
AcDbEntity
  8
0
 62
     4
100
AcDbPolyline
 90
        4
 70
     1
 43
0.0
 10
170.2070770539703
 20
125.016925109551
 10
170.6923281159823
 20
125.5499071525598
 10
168.1380117112773
 20
127.8754728340989
 10
167.6527606492652
 20
127.3424907910901
  0
LWPOLYLINE
  5
3CC
330
1F
100
AcDbEntity
  8
0
 62
     4
100
AcDbPolyline
 90
        4
 70
     1
 43
0.0
 10
171.7225443826237
 20
130.160075118614
 10
171.7225443826237
 20
122.6738365865037
 10
176.8225443826238
 20
122.6738365865037
 10
176.8225443826238
 20
130.160075118614
  0
CIRCLE
  5
3CD
330
1F
100
AcDbEntity
  8
0
 62
     4
100
AcDbCircle
 10
174.2725443826237
 20
126.4461989718249
 30
0.0
 40
1.871559633027523
  0
LWPOLYLINE
  5
3CE
330
1F
100
AcDbEntity
  8
0
 62
     4
100
AcDbPolyline
 90
        4
 70
     1
 43
0.0
 10
175.3070770539703
 20
125.016925109551
 10
175.7923281159823
 20
125.5499071525598
 10
173.2380117112773
 20
127.8754728340989
 10
172.7527606492653
 20
127.3424907910901
  0
LWPOLYLINE
  5
3CF
330
1F
100
AcDbEntity
  8
0
 62
     4
100
AcDbPolyline
 90
        2
 70
     0
 43
0.0
 10
85.02254438262395
 20
130.160075118614
 10
85.02254438262395
 20
122.6738365865037
  0
LWPOLYLINE
  5
3D0
330
1F
100
AcDbEntity
  8
0
100
AcDbPolyline
 90
        4
 70
     1
 43
0.0
 10
73.52829563650267
 20
145.3814053938431
 10
73.52829563650267
 20
148.3814053938431
 10
76.52829563650268
 20
148.3814053938431
 10
76.52829563650268
 20
145.3814053938431
  0
LWPOLYLINE
  5
3D1
330
1F
100
AcDbEntity
  8
0
100
AcDbPolyline
 90
        4
 70
     0
 43
0.0
 10
76.52829563650268
 20
145.3814053938431
 10
76.52829563650268
 20
148.3814053938431
 10
79.52829563650268
 20
148.3814053938431
 10
79.52829563650268
 20
145.3814053938431
  0
LWPOLYLINE
  5
3D2
330
1F
100
AcDbEntity
  8
0
100
AcDbPolyline
 90
        4
 70
     1
 43
0.0
 10
79.52829563650268
 20
145.3814053938431
 10
79.52829563650268
 20
148.3814053938431
 10
82.52829563650267
 20
148.3814053938431
 10
82.52829563650267
 20
145.3814053938431
  0
LWPOLYLINE
  5
3D3
330
1F
100
AcDbEntity
  8
0
100
AcDbPolyline
 90
        4
 70
     0
 43
0.0
 10
82.52829563650267
 20
145.3814053938431
 10
82.52829563650267
 20
148.3814053938431
 10
85.52829563650268
 20
148.3814053938431
 10
85.52829563650268
 20
145.3814053938431
  0
LWPOLYLINE
  5
3D4
330
1F
100
AcDbEntity
  8
0
100
AcDbPolyline
 90
        4
 70
     1
 43
0.0
 10
85.52829563650268
 20
145.3814053938431
 10
85.52829563650268
 20
148.3814053938431
 10
88.52829563650267
 20
148.3814053938431
 10
88.52829563650267
 20
145.3814053938431
  0
LWPOLYLINE
  5
3D5
330
1F
100
AcDbEntity
  8
0
100
AcDbPolyline
 90
        4
 70
     0
 43
0.0
 10
88.52829563650267
 20
145.3814053938431
 10
88.52829563650267
 20
148.3814053938431
 10
91.52829563650263
 20
148.3814053938431
 10
91.52829563650263
 20
145.3814053938431
  0
LWPOLYLINE
  5
3D6
330
1F
100
AcDbEntity
  8
0
100
AcDbPolyline
 90
        4
 70
     1
 43
0.0
 10
91.52829563650263
 20
145.3814053938431
 10
91.52829563650263
 20
148.3814053938431
 10
94.52829563650261
 20
148.3814053938431
 10
94.52829563650261
 20
145.3814053938431
  0
LWPOLYLINE
  5
3D7
330
1F
100
AcDbEntity
  8
0
100
AcDbPolyline
 90
        4
 70
     0
 43
0.0
 10
94.52829563650261
 20
145.3814053938431
 10
94.52829563650261
 20
148.3814053938431
 10
97.52829563650262
 20
148.3814053938431
 10
97.52829563650262
 20
145.3814053938431
  0
LWPOLYLINE
  5
3D8
330
1F
100
AcDbEntity
  8
0
100
AcDbPolyline
 90
        4
 70
     1
 43
0.0
 10
97.52829563650262
 20
145.3814053938431
 10
97.52829563650262
 20
148.3814053938431
 10
100.5282956365026
 20
148.3814053938431
 10
100.5282956365026
 20
145.3814053938431
  0
LWPOLYLINE
  5
3D9
330
1F
100
AcDbEntity
  8
0
100
AcDbPolyline
 90
        4
 70
     0
 43
0.0
 10
100.5282956365026
 20
145.3814053938431
 10
100.5282956365026
 20
148.3814053938431
 10
103.5282956365026
 20
148.3814053938431
 10
103.5282956365026
 20
145.3814053938431
  0
LWPOLYLINE
  5
3DA
330
1F
100
AcDbEntity
  8
0
100
AcDbPolyline
 90
        4
 70
     1
 43
0.0
 10
103.5282956365026
 20
145.3814053938431
 10
103.5282956365026
 20
148.3814053938431
 10
106.5282956365026
 20
148.3814053938431
 10
106.5282956365026
 20
145.3814053938431
  0
LWPOLYLINE
  5
3DB
330
1F
100
AcDbEntity
  8
0
100
AcDbPolyline
 90
        4
 70
     0
 43
0.0
 10
106.5282956365026
 20
145.3814053938431
 10
106.5282956365026
 20
148.3814053938431
 10
109.5282956365026
 20
148.3814053938431
 10
109.5282956365026
 20
145.3814053938431
  0
LWPOLYLINE
  5
3DC
330
1F
100
AcDbEntity
  8
0
100
AcDbPolyline
 90
        4
 70
     1
 43
0.0
 10
109.5282956365026
 20
145.3814053938431
 10
109.5282956365026
 20
148.3814053938431
 10
112.5282956365026
 20
148.3814053938431
 10
112.5282956365026
 20
145.3814053938431
  0
LWPOLYLINE
  5
3DD
330
1F
100
AcDbEntity
  8
0
100
AcDbPolyline
 90
        4
 70
     0
 43
0.0
 10
112.5282956365026
 20
145.3814053938431
 10
112.5282956365026
 20
148.3814053938431
 10
115.5282956365026
 20
148.3814053938431
 10
115.5282956365026
 20
145.3814053938431
  0
LWPOLYLINE
  5
3DE
330
1F
100
AcDbEntity
  8
0
100
AcDbPolyline
 90
        4
 70
     1
 43
0.0
 10
115.5282956365026
 20
145.3814053938431
 10
115.5282956365026
 20
148.3814053938431
 10
118.5282956365026
 20
148.3814053938431
 10
118.5282956365026
 20
145.3814053938431
  0
LWPOLYLINE
  5
3DF
330
1F
100
AcDbEntity
  8
0
100
AcDbPolyline
 90
        4
 70
     0
 43
0.0
 10
118.5282956365026
 20
145.3814053938431
 10
118.5282956365026
 20
148.3814053938431
 10
121.5282956365026
 20
148.3814053938431
 10
121.5282956365026
 20
145.3814053938431
  0
LWPOLYLINE
  5
3E0
330
1F
100
AcDbEntity
  8
0
100
AcDbPolyline
 90
        4
 70
     1
 43
0.0
 10
121.5282956365026
 20
145.3814053938431
 10
121.5282956365026
 20
148.3814053938431
 10
124.5282956365026
 20
148.3814053938431
 10
124.5282956365026
 20
145.3814053938431
  0
LWPOLYLINE
  5
3E1
330
1F
100
AcDbEntity
  8
0
100
AcDbPolyline
 90
        4
 70
     0
 43
0.0
 10
124.5282956365026
 20
145.3814053938431
 10
124.5282956365026
 20
148.3814053938431
 10
127.5282956365026
 20
148.3814053938431
 10
127.5282956365026
 20
145.3814053938431
  0
LWPOLYLINE
  5
3E2
330
1F
100
AcDbEntity
  8
0
100
AcDbPolyline
 90
        4
 70
     1
 43
0.0
 10
127.5282956365026
 20
145.3814053938431
 10
127.5282956365026
 20
148.3814053938431
 10
130.5282956365026
 20
148.3814053938431
 10
130.5282956365026
 20
145.3814053938431
  0
LWPOLYLINE
  5
3E3
330
1F
100
AcDbEntity
  8
0
100
AcDbPolyline
 90
        4
 70
     0
 43
0.0
 10
130.5282956365026
 20
145.3814053938431
 10
130.5282956365026
 20
148.3814053938431
 10
133.5282956365026
 20
148.3814053938431
 10
133.5282956365026
 20
145.3814053938431
  0
LWPOLYLINE
  5
3E4
330
1F
100
AcDbEntity
  8
0
100
AcDbPolyline
 90
        4
 70
     1
 43
0.0
 10
133.5282956365026
 20
145.3814053938431
 10
133.5282956365026
 20
148.3814053938431
 10
136.5282956365026
 20
148.3814053938431
 10
136.5282956365026
 20
145.3814053938431
  0
LWPOLYLINE
  5
3E5
330
1F
100
AcDbEntity
  8
0
100
AcDbPolyline
 90
        4
 70
     0
 43
0.0
 10
136.5282956365026
 20
145.3814053938431
 10
136.5282956365026
 20
148.3814053938431
 10
139.5282956365026
 20
148.3814053938431
 10
139.5282956365026
 20
145.3814053938431
  0
LWPOLYLINE
  5
3E6
330
1F
100
AcDbEntity
  8
0
100
AcDbPolyline
 90
        4
 70
     1
 43
0.0
 10
139.5282956365026
 20
145.3814053938431
 10
139.5282956365026
 20
148.3814053938431
 10
142.5282956365026
 20
148.3814053938431
 10
142.5282956365026
 20
145.3814053938431
  0
LWPOLYLINE
  5
3E7
330
1F
100
AcDbEntity
  8
0
100
AcDbPolyline
 90
        4
 70
     0
 43
0.0
 10
142.5282956365026
 20
145.3814053938431
 10
142.5282956365026
 20
148.3814053938431
 10
145.5282956365026
 20
148.3814053938431
 10
145.5282956365026
 20
145.3814053938431
  0
LWPOLYLINE
  5
3E8
330
1F
100
AcDbEntity
  8
0
100
AcDbPolyline
 90
        4
 70
     1
 43
0.0
 10
145.5282956365026
 20
145.3814053938431
 10
145.5282956365026
 20
148.3814053938431
 10
148.5282956365026
 20
148.3814053938431
 10
148.5282956365026
 20
145.3814053938431
  0
LWPOLYLINE
  5
3E9
330
1F
100
AcDbEntity
  8
0
100
AcDbPolyline
 90
        4
 70
     0
 43
0.0
 10
148.5282956365026
 20
145.3814053938431
 10
148.5282956365026
 20
148.3814053938431
 10
151.5282956365026
 20
148.3814053938431
 10
151.5282956365026
 20
145.3814053938431
  0
LWPOLYLINE
  5
3EA
330
1F
100
AcDbEntity
  8
0
100
AcDbPolyline
 90
        4
 70
     1
 43
0.0
 10
151.5282956365026
 20
145.3814053938431
 10
151.5282956365026
 20
148.3814053938431
 10
154.5282956365026
 20
148.3814053938431
 10
154.5282956365026
 20
145.3814053938431
  0
LWPOLYLINE
  5
3EB
330
1F
100
AcDbEntity
  8
0
100
AcDbPolyline
 90
        4
 70
     0
 43
0.0
 10
154.5282956365026
 20
145.3814053938431
 10
154.5282956365026
 20
148.3814053938431
 10
157.5282956365026
 20
148.3814053938431
 10
157.5282956365026
 20
145.3814053938431
  0
LWPOLYLINE
  5
3EC
330
1F
100
AcDbEntity
  8
0
100
AcDbPolyline
 90
        4
 70
     1
 43
0.0
 10
157.5282956365026
 20
145.3814053938431
 10
157.5282956365026
 20
148.3814053938431
 10
160.5282956365026
 20
148.3814053938431
 10
160.5282956365026
 20
145.3814053938431
  0
LWPOLYLINE
  5
3ED
330
1F
100
AcDbEntity
  8
0
100
AcDbPolyline
 90
        4
 70
     0
 43
0.0
 10
160.5282956365026
 20
145.3814053938431
 10
160.5282956365026
 20
148.3814053938431
 10
163.5282956365026
 20
148.3814053938431
 10
163.5282956365026
 20
145.3814053938431
  0
LWPOLYLINE
  5
3EE
330
1F
100
AcDbEntity
  8
0
100
AcDbPolyline
 90
        4
 70
     1
 43
0.0
 10
163.5282956365026
 20
145.3814053938431
 10
163.5282956365026
 20
148.3814053938431
 10
166.5282956365026
 20
148.3814053938431
 10
166.5282956365026
 20
145.3814053938431
  0
LWPOLYLINE
  5
3EF
330
1F
100
AcDbEntity
  8
0
100
AcDbPolyline
 90
        4
 70
     0
 43
0.0
 10
166.5282956365026
 20
145.3814053938431
 10
166.5282956365026
 20
148.3814053938431
 10
169.5282956365026
 20
148.3814053938431
 10
169.5282956365026
 20
145.3814053938431
  0
LWPOLYLINE
  5
3F0
330
1F
100
AcDbEntity
  8
0
100
AcDbPolyline
 90
        4
 70
     1
 43
0.0
 10
169.5282956365026
 20
145.3814053938431
 10
169.5282956365026
 20
148.3814053938431
 10
172.5282956365026
 20
148.3814053938431
 10
172.5282956365026
 20
145.3814053938431
  0
LWPOLYLINE
  5
3F1
330
1F
100
AcDbEntity
  8
0
100
AcDbPolyline
 90
        4
 70
     0
 43
0.0
 10
172.5282956365026
 20
145.3814053938431
 10
172.5282956365026
 20
148.3814053938431
 10
175.5282956365026
 20
148.3814053938431
 10
175.5282956365026
 20
145.3814053938431
  0
LWPOLYLINE
  5
3F2
330
1F
100
AcDbEntity
  8
0
100
AcDbPolyline
 90
        4
 70
     1
 43
0.0
 10
175.5282956365026
 20
145.3814053938431
 10
175.5282956365026
 20
148.3814053938431
 10
178.5282956365026
 20
148.3814053938431
 10
178.5282956365026
 20
145.3814053938431
  0
LINE
  5
3F3
330
1F
100
AcDbEntity
  8
0
100
AcDbLine
 10
75.36629784507796
 20
148.3814053938431
 30
0.0
 11
67.07254438262392
 21
148.3814053938431
 31
0.0
  0
LINE
  5
3F4
330
1F
100
AcDbEntity
  8
0
100
AcDbLine
 10
178.5282956365026
 20
148.3814053938431
 30
0.0
 11
185.5725443826239
 21
148.3814053938431
 31
0.0
  0
LWPOLYLINE
  5
3F5
330
1F
100
AcDbEntity
  8
0
100
AcDbPolyline
 90
        2
 70
     0
 43
0.0
 10
178.5282956365026
 20
225.3814053938431
 10
175.5282956365026
 20
225.3814053938431
  0
LWPOLYLINE
  5
3F6
330
1F
100
AcDbEntity
  8
0
100
AcDbPolyline
 90
        2
 70
     0
 43
0.0
 10
172.5282956365026
 20
225.3814053938431
 10
169.5282956365027
 20
225.3814053938431
  0
LWPOLYLINE
  5
3F7
330
1F
100
AcDbEntity
  8
0
100
AcDbPolyline
 90
        2
 70
     0
 43
0.0
 10
166.5282956365026
 20
225.3814053938431
 10
163.5282956365026
 20
225.3814053938431
  0
LWPOLYLINE
  5
3F8
330
1F
100
AcDbEntity
  8
0
100
AcDbPolyline
 90
        2
 70
     0
 43
0.0
 10
160.5282956365026
 20
225.3814053938431
 10
157.5282956365026
 20
225.3814053938431
  0
LWPOLYLINE
  5
3F9
330
1F
100
AcDbEntity
  8
0
100
AcDbPolyline
 90
        2
 70
     0
 43
0.0
 10
154.5282956365026
 20
225.3814053938431
 10
151.5282956365026
 20
225.3814053938431
  0
LWPOLYLINE
  5
3FA
330
1F
100
AcDbEntity
  8
0
100
AcDbPolyline
 90
        2
 70
     0
 43
0.0
 10
148.5282956365026
 20
225.3814053938431
 10
145.5282956365026
 20
225.3814053938431
  0
LWPOLYLINE
  5
3FB
330
1F
100
AcDbEntity
  8
0
100
AcDbPolyline
 90
        2
 70
     0
 43
0.0
 10
142.5282956365026
 20
225.3814053938431
 10
139.5282956365026
 20
225.3814053938431
  0
LWPOLYLINE
  5
3FC
330
1F
100
AcDbEntity
  8
0
100
AcDbPolyline
 90
        2
 70
     0
 43
0.0
 10
136.5282956365026
 20
225.3814053938431
 10
133.5282956365026
 20
225.3814053938431
  0
LWPOLYLINE
  5
3FD
330
1F
100
AcDbEntity
  8
0
100
AcDbPolyline
 90
        2
 70
     0
 43
0.0
 10
130.5282956365026
 20
225.3814053938431
 10
127.5282956365026
 20
225.3814053938431
  0
LWPOLYLINE
  5
3FE
330
1F
100
AcDbEntity
  8
0
100
AcDbPolyline
 90
        2
 70
     0
 43
0.0
 10
124.5282956365026
 20
225.3814053938431
 10
121.5282956365026
 20
225.3814053938431
  0
LWPOLYLINE
  5
3FF
330
1F
100
AcDbEntity
  8
0
100
AcDbPolyline
 90
        2
 70
     0
 43
0.0
 10
118.5282956365026
 20
225.3814053938431
 10
115.5282956365026
 20
225.3814053938431
  0
LWPOLYLINE
  5
400
330
1F
100
AcDbEntity
  8
0
100
AcDbPolyline
 90
        2
 70
     0
 43
0.0
 10
112.5282956365026
 20
225.3814053938431
 10
109.5282956365026
 20
225.3814053938431
  0
LWPOLYLINE
  5
401
330
1F
100
AcDbEntity
  8
0
100
AcDbPolyline
 90
        2
 70
     0
 43
0.0
 10
106.5282956365026
 20
225.3814053938431
 10
103.5282956365026
 20
225.3814053938431
  0
LWPOLYLINE
  5
402
330
1F
100
AcDbEntity
  8
0
100
AcDbPolyline
 90
        2
 70
     0
 43
0.0
 10
100.5282956365026
 20
225.3814053938431
 10
97.52829563650262
 20
225.3814053938431
  0
LWPOLYLINE
  5
403
330
1F
100
AcDbEntity
  8
0
100
AcDbPolyline
 90
        2
 70
     0
 43
0.0
 10
94.52829563650261
 20
225.3814053938431
 10
91.52829563650263
 20
225.3814053938431
  0
LWPOLYLINE
  5
404
330
1F
100
AcDbEntity
  8
0
100
AcDbPolyline
 90
        2
 70
     0
 43
0.0
 10
88.52829563650267
 20
225.3814053938431
 10
85.52829563650268
 20
225.3814053938431
  0
LWPOLYLINE
  5
405
330
1F
100
AcDbEntity
  8
0
100
AcDbPolyline
 90
        2
 70
     0
 43
0.0
 10
82.52829563650267
 20
225.3814053938431
 10
79.52829563650268
 20
225.3814053938431
  0
LWPOLYLINE
  5
406
330
1F
100
AcDbEntity
  8
0
100
AcDbPolyline
 90
        2
 70
     0
 43
0.0
 10
76.52829563650268
 20
225.3814053938431
 10
73.52829563650267
 20
225.3814053938431
  0
LWPOLYLINE
  5
407
330
1F
100
AcDbEntity
  8
0
100
AcDbPolyline
 90
        4
 70
     1
 43
0.0
 10
73.52829563650267
 20
225.3814053938431
 10
73.52829563650267
 20
222.3814053938431
 10
76.52829563650268
 20
222.3814053938431
 10
76.52829563650268
 20
225.3814053938431
  0
LWPOLYLINE
  5
408
330
1F
100
AcDbEntity
  8
0
100
AcDbPolyline
 90
        4
 70
     0
 43
0.0
 10
76.52829563650268
 20
225.3814053938431
 10
76.52829563650268
 20
222.3814053938431
 10
79.52829563650268
 20
222.3814053938431
 10
79.52829563650268
 20
225.3814053938431
  0
LWPOLYLINE
  5
409
330
1F
100
AcDbEntity
  8
0
100
AcDbPolyline
 90
        4
 70
     1
 43
0.0
 10
79.52829563650268
 20
225.3814053938431
 10
79.52829563650268
 20
222.3814053938431
 10
82.52829563650267
 20
222.3814053938431
 10
82.52829563650267
 20
225.3814053938431
  0
LWPOLYLINE
  5
40A
330
1F
100
AcDbEntity
  8
0
100
AcDbPolyline
 90
        4
 70
     0
 43
0.0
 10
82.52829563650267
 20
225.3814053938431
 10
82.52829563650267
 20
222.3814053938431
 10
85.52829563650268
 20
222.3814053938431
 10
85.52829563650268
 20
225.3814053938431
  0
LWPOLYLINE
  5
40B
330
1F
100
AcDbEntity
  8
0
100
AcDbPolyline
 90
        4
 70
     1
 43
0.0
 10
85.52829563650268
 20
225.3814053938431
 10
85.52829563650268
 20
222.3814053938431
 10
88.52829563650267
 20
222.3814053938431
 10
88.52829563650267
 20
225.3814053938431
  0
LWPOLYLINE
  5
40C
330
1F
100
AcDbEntity
  8
0
100
AcDbPolyline
 90
        4
 70
     0
 43
0.0
 10
88.52829563650267
 20
225.3814053938431
 10
88.52829563650267
 20
222.3814053938431
 10
91.52829563650263
 20
222.3814053938431
 10
91.52829563650263
 20
225.3814053938431
  0
LWPOLYLINE
  5
40D
330
1F
100
AcDbEntity
  8
0
100
AcDbPolyline
 90
        4
 70
     1
 43
0.0
 10
91.52829563650263
 20
225.3814053938431
 10
91.52829563650263
 20
222.3814053938431
 10
94.52829563650261
 20
222.3814053938431
 10
94.52829563650261
 20
225.3814053938431
  0
LWPOLYLINE
  5
40E
330
1F
100
AcDbEntity
  8
0
100
AcDbPolyline
 90
        4
 70
     0
 43
0.0
 10
94.52829563650261
 20
225.3814053938431
 10
94.52829563650261
 20
222.3814053938431
 10
97.52829563650262
 20
222.3814053938431
 10
97.52829563650262
 20
225.3814053938431
  0
LWPOLYLINE
  5
40F
330
1F
100
AcDbEntity
  8
0
100
AcDbPolyline
 90
        4
 70
     1
 43
0.0
 10
97.52829563650262
 20
225.3814053938431
 10
97.52829563650262
 20
222.3814053938431
 10
100.5282956365026
 20
222.3814053938431
 10
100.5282956365026
 20
225.3814053938431
  0
LWPOLYLINE
  5
410
330
1F
100
AcDbEntity
  8
0
100
AcDbPolyline
 90
        4
 70
     0
 43
0.0
 10
100.5282956365026
 20
225.3814053938431
 10
100.5282956365026
 20
222.3814053938431
 10
103.5282956365026
 20
222.3814053938431
 10
103.5282956365026
 20
225.3814053938431
  0
LWPOLYLINE
  5
411
330
1F
100
AcDbEntity
  8
0
100
AcDbPolyline
 90
        4
 70
     1
 43
0.0
 10
103.5282956365026
 20
225.3814053938431
 10
103.5282956365026
 20
222.3814053938431
 10
106.5282956365026
 20
222.3814053938431
 10
106.5282956365026
 20
225.3814053938431
  0
LWPOLYLINE
  5
412
330
1F
100
AcDbEntity
  8
0
100
AcDbPolyline
 90
        4
 70
     0
 43
0.0
 10
106.5282956365026
 20
225.3814053938431
 10
106.5282956365026
 20
222.3814053938431
 10
109.5282956365026
 20
222.3814053938431
 10
109.5282956365026
 20
225.3814053938431
  0
LWPOLYLINE
  5
413
330
1F
100
AcDbEntity
  8
0
100
AcDbPolyline
 90
        4
 70
     1
 43
0.0
 10
109.5282956365026
 20
225.3814053938431
 10
109.5282956365026
 20
222.3814053938431
 10
112.5282956365026
 20
222.3814053938431
 10
112.5282956365026
 20
225.3814053938431
  0
LWPOLYLINE
  5
414
330
1F
100
AcDbEntity
  8
0
100
AcDbPolyline
 90
        4
 70
     0
 43
0.0
 10
112.5282956365026
 20
225.3814053938431
 10
112.5282956365026
 20
222.3814053938431
 10
115.5282956365026
 20
222.3814053938431
 10
115.5282956365026
 20
225.3814053938431
  0
LWPOLYLINE
  5
415
330
1F
100
AcDbEntity
  8
0
100
AcDbPolyline
 90
        4
 70
     1
 43
0.0
 10
115.5282956365026
 20
225.3814053938431
 10
115.5282956365026
 20
222.3814053938431
 10
118.5282956365026
 20
222.3814053938431
 10
118.5282956365026
 20
225.3814053938431
  0
LWPOLYLINE
  5
416
330
1F
100
AcDbEntity
  8
0
100
AcDbPolyline
 90
        4
 70
     0
 43
0.0
 10
118.5282956365026
 20
225.3814053938431
 10
118.5282956365026
 20
222.3814053938431
 10
121.5282956365026
 20
222.3814053938431
 10
121.5282956365026
 20
225.3814053938431
  0
LWPOLYLINE
  5
417
330
1F
100
AcDbEntity
  8
0
100
AcDbPolyline
 90
        4
 70
     1
 43
0.0
 10
121.5282956365026
 20
225.3814053938431
 10
121.5282956365026
 20
222.3814053938431
 10
124.5282956365026
 20
222.3814053938431
 10
124.5282956365026
 20
225.3814053938431
  0
LWPOLYLINE
  5
418
330
1F
100
AcDbEntity
  8
0
100
AcDbPolyline
 90
        4
 70
     0
 43
0.0
 10
124.5282956365026
 20
225.3814053938431
 10
124.5282956365026
 20
222.3814053938431
 10
127.5282956365026
 20
222.3814053938431
 10
127.5282956365026
 20
225.3814053938431
  0
LWPOLYLINE
  5
419
330
1F
100
AcDbEntity
  8
0
100
AcDbPolyline
 90
        4
 70
     1
 43
0.0
 10
127.5282956365026
 20
225.3814053938431
 10
127.5282956365026
 20
222.3814053938431
 10
130.5282956365026
 20
222.3814053938431
 10
130.5282956365026
 20
225.3814053938431
  0
LWPOLYLINE
  5
41A
330
1F
100
AcDbEntity
  8
0
100
AcDbPolyline
 90
        4
 70
     0
 43
0.0
 10
130.5282956365026
 20
225.3814053938431
 10
130.5282956365026
 20
222.3814053938431
 10
133.5282956365026
 20
222.3814053938431
 10
133.5282956365026
 20
225.3814053938431
  0
LWPOLYLINE
  5
41B
330
1F
100
AcDbEntity
  8
0
100
AcDbPolyline
 90
        4
 70
     1
 43
0.0
 10
133.5282956365026
 20
225.3814053938431
 10
133.5282956365026
 20
222.3814053938431
 10
136.5282956365026
 20
222.3814053938431
 10
136.5282956365026
 20
225.3814053938431
  0
LWPOLYLINE
  5
41C
330
1F
100
AcDbEntity
  8
0
100
AcDbPolyline
 90
        4
 70
     0
 43
0.0
 10
136.5282956365026
 20
225.3814053938431
 10
136.5282956365026
 20
222.3814053938431
 10
139.5282956365026
 20
222.3814053938431
 10
139.5282956365026
 20
225.3814053938431
  0
LWPOLYLINE
  5
41D
330
1F
100
AcDbEntity
  8
0
100
AcDbPolyline
 90
        4
 70
     1
 43
0.0
 10
139.5282956365026
 20
225.3814053938431
 10
139.5282956365026
 20
222.3814053938431
 10
142.5282956365026
 20
222.3814053938431
 10
142.5282956365026
 20
225.3814053938431
  0
LWPOLYLINE
  5
41E
330
1F
100
AcDbEntity
  8
0
100
AcDbPolyline
 90
        4
 70
     0
 43
0.0
 10
142.5282956365026
 20
225.3814053938431
 10
142.5282956365026
 20
222.3814053938431
 10
145.5282956365026
 20
222.3814053938431
 10
145.5282956365026
 20
225.3814053938431
  0
LWPOLYLINE
  5
41F
330
1F
100
AcDbEntity
  8
0
100
AcDbPolyline
 90
        4
 70
     1
 43
0.0
 10
145.5282956365026
 20
225.3814053938431
 10
145.5282956365026
 20
222.3814053938431
 10
148.5282956365026
 20
222.3814053938431
 10
148.5282956365026
 20
225.3814053938431
  0
LWPOLYLINE
  5
420
330
1F
100
AcDbEntity
  8
0
100
AcDbPolyline
 90
        4
 70
     0
 43
0.0
 10
148.5282956365026
 20
225.3814053938431
 10
148.5282956365026
 20
222.3814053938431
 10
151.5282956365026
 20
222.3814053938431
 10
151.5282956365026
 20
225.3814053938431
  0
LWPOLYLINE
  5
421
330
1F
100
AcDbEntity
  8
0
100
AcDbPolyline
 90
        4
 70
     1
 43
0.0
 10
151.5282956365026
 20
225.3814053938431
 10
151.5282956365026
 20
222.3814053938431
 10
154.5282956365026
 20
222.3814053938431
 10
154.5282956365026
 20
225.3814053938431
  0
LWPOLYLINE
  5
422
330
1F
100
AcDbEntity
  8
0
100
AcDbPolyline
 90
        4
 70
     0
 43
0.0
 10
154.5282956365026
 20
225.3814053938431
 10
154.5282956365026
 20
222.3814053938431
 10
157.5282956365026
 20
222.3814053938431
 10
157.5282956365026
 20
225.3814053938431
  0
LWPOLYLINE
  5
423
330
1F
100
AcDbEntity
  8
0
100
AcDbPolyline
 90
        4
 70
     1
 43
0.0
 10
157.5282956365026
 20
225.3814053938431
 10
157.5282956365026
 20
222.3814053938431
 10
160.5282956365026
 20
222.3814053938431
 10
160.5282956365026
 20
225.3814053938431
  0
LWPOLYLINE
  5
424
330
1F
100
AcDbEntity
  8
0
100
AcDbPolyline
 90
        4
 70
     0
 43
0.0
 10
160.5282956365026
 20
225.3814053938431
 10
160.5282956365026
 20
222.3814053938431
 10
163.5282956365026
 20
222.3814053938431
 10
163.5282956365026
 20
225.3814053938431
  0
LWPOLYLINE
  5
425
330
1F
100
AcDbEntity
  8
0
100
AcDbPolyline
 90
        4
 70
     1
 43
0.0
 10
163.5282956365026
 20
225.3814053938431
 10
163.5282956365026
 20
222.3814053938431
 10
166.5282956365026
 20
222.3814053938431
 10
166.5282956365026
 20
225.3814053938431
  0
LWPOLYLINE
  5
426
330
1F
100
AcDbEntity
  8
0
100
AcDbPolyline
 90
        4
 70
     0
 43
0.0
 10
166.5282956365026
 20
225.3814053938431
 10
166.5282956365026
 20
222.3814053938431
 10
169.5282956365027
 20
222.3814053938431
 10
169.5282956365027
 20
225.3814053938431
  0
LWPOLYLINE
  5
427
330
1F
100
AcDbEntity
  8
0
100
AcDbPolyline
 90
        4
 70
     1
 43
0.0
 10
169.5282956365027
 20
225.3814053938431
 10
169.5282956365027
 20
222.3814053938431
 10
172.5282956365026
 20
222.3814053938431
 10
172.5282956365026
 20
225.3814053938431
  0
LWPOLYLINE
  5
428
330
1F
100
AcDbEntity
  8
0
100
AcDbPolyline
 90
        4
 70
     0
 43
0.0
 10
172.5282956365026
 20
225.3814053938431
 10
172.5282956365026
 20
222.3814053938431
 10
175.5282956365026
 20
222.3814053938431
 10
175.5282956365026
 20
225.3814053938431
  0
LWPOLYLINE
  5
429
330
1F
100
AcDbEntity
  8
0
100
AcDbPolyline
 90
        4
 70
     1
 43
0.0
 10
175.5282956365026
 20
225.3814053938431
 10
175.5282956365026
 20
222.3814053938431
 10
178.5282956365026
 20
222.3814053938431
 10
178.5282956365026
 20
225.3814053938431
  0
LINE
  5
42A
330
1F
100
AcDbEntity
  8
0
100
AcDbLine
 10
73.52829563650267
 20
222.3814053938431
 30
0.0
 11
67.07254438262392
 21
222.3814053938431
 31
0.0
  0
LINE
  5
42B
330
1F
100
AcDbEntity
  8
0
100
AcDbLine
 10
178.5282956365026
 20
222.3814053938431
 30
0.0
 11
185.5725443826239
 21
222.3814053938431
 31
0.0
  0
MTEXT
  5
42C
330
1F
100
AcDbEntity
  8
0
100
AcDbMText
 10
69.77430886622717
 20
198.0299341322059
 30
0.0
 40
8.0
 41
117.0266261906474
 71
     1
 72
     5
  1
{\fTimes New Roman|b0|i0|c0|p18;PNTECH CONTROLS}
 73
     1
 44
1.0
1001
ACAD
1000
MTEXTBEGIN
1070
    73
1070
     1
1070
    44
1040
1.0
1070
    74
1070
     0
1000
MTEXTEND
  0
MTEXT
  5
42D
330
1F
100
AcDbEntity
  8
0
100
AcDbMText
 10
138.8330957781699
 20
168.5077652079526
 30
0.0
 40
5.0
 41
44.79584331544697
 71
     1
 72
     5
  1
{\fTimes New Roman|b0|i0|c0|p18;EXP-16RO}
 73
     1
 44
1.0
1001
ACAD
1000
MTEXTBEGIN
1070
    73
1070
     1
1070
    44
1040
1.0
1070
    74
1070
     0
1000
MTEXTEND
  0
MTEXT
  5
42E
330
1F
100
AcDbEntity
  8
0
100
AcDbMText
 10
127.4162788732973
 20
135.1635631184801
 30
0.0
 40
2.339449541284403
 41
16.3873234010998
 71
     1
 72
     5
  1
{\fTimes New Roman|b0|i0|c0|p18;NO B_1}
 11
0.0000000000000001
 21
1.0
 31
0.0
 73
     1
 44
1.0
1001
ACAD
1000
MTEXTBEGIN
1070
    73
1070
     1
1070
    44
1040
1.0
1070
    74
1070
     0
1000
MTEXTEND
  0
MTEXT
  5
42F
330
1F
100
AcDbEntity
  8
0
100
AcDbMText
 10
132.5162788732973
 20
135.1635631184801
 30
0.0
 40
2.339449541284403
 41
16.3873234010998
 71
     1
 72
     5
  1
{\fTimes New Roman|b0|i0|c0|p18;NO B_2}
 11
0.0000000000000001
 21
1.0
 31
0.0
 73
     1
 44
1.0
1001
ACAD
1000
MTEXTBEGIN
1070
    73
1070
     1
1070
    44
1040
1.0
1070
    74
1070
     0
1000
MTEXTEND
  0
MTEXT
  5
430
330
1F
100
AcDbEntity
  8
0
100
AcDbMText
 10
137.6162788732973
 20
135.1635631184801
 30
0.0
 40
2.339449541284403
 41
16.3873234010998
 71
     1
 72
     5
  1
{\fTimes New Roman|b0|i0|c0|p18;NO C_1}
 11
0.0000000000000001
 21
1.0
 31
0.0
 73
     1
 44
1.0
1001
ACAD
1000
MTEXTBEGIN
1070
    73
1070
     1
1070
    44
1040
1.0
1070
    74
1070
     0
1000
MTEXTEND
  0
MTEXT
  5
431
330
1F
100
AcDbEntity
  8
0
100
AcDbMText
 10
142.7162788732973
 20
135.1635631184801
 30
0.0
 40
2.339449541284403
 41
16.3873234010998
 71
     1
 72
     5
  1
{\fTimes New Roman|b0|i0|c0|p18;NO C_2}
 11
0.0000000000000001
 21
1.0
 31
0.0
 73
     1
 44
1.0
1001
ACAD
1000
MTEXTBEGIN
1070
    73
1070
     1
1070
    44
1040
1.0
1070
    74
1070
     0
1000
MTEXTEND
  0
MTEXT
  5
432
330
1F
100
AcDbEntity
  8
0
100
AcDbMText
 10
147.8162788732973
 20
135.1635631184801
 30
0.0
 40
2.339449541284403
 41
16.3873234010998
 71
     1
 72
     5
  1
{\fTimes New Roman|b0|i0|c0|p18;NO D_1}
 11
0.0000000000000001
 21
1.0
 31
0.0
 73
     1
 44
1.0
1001
ACAD
1000
MTEXTBEGIN
1070
    73
1070
     1
1070
    44
1040
1.0
1070
    74
1070
     0
1000
MTEXTEND
  0
MTEXT
  5
433
330
1F
100
AcDbEntity
  8
0
100
AcDbMText
 10
152.9162788732973
 20
135.1635631184801
 30
0.0
 40
2.339449541284403
 41
16.3873234010998
 71
     1
 72
     5
  1
{\fTimes New Roman|b0|i0|c0|p18;NO D_2}
 11
0.0000000000000001
 21
1.0
 31
0.0
 73
     1
 44
1.0
1001
ACAD
1000
MTEXTBEGIN
1070
    73
1070
     1
1070
    44
1040
1.0
1070
    74
1070
     0
1000
MTEXTEND
  0
MTEXT
  5
434
330
1F
100
AcDbEntity
  8
0
100
AcDbMText
 10
158.0162788732973
 20
135.1635631184801
 30
0.0
 40
2.339449541284403
 41
16.3873234010998
 71
     1
 72
     5
  1
{\fTimes New Roman|b0|i0|c0|p18;NO E_1}
 11
0.0000000000000001
 21
1.0
 31
0.0
 73
     1
 44
1.0
1001
ACAD
1000
MTEXTBEGIN
1070
    73
1070
     1
1070
    44
1040
1.0
1070
    74
1070
     0
1000
MTEXTEND
  0
MTEXT
  5
435
330
1F
100
AcDbEntity
  8
0
100
AcDbMText
 10
163.1162788732973
 20
135.1635631184801
 30
0.0
 40
2.339449541284403
 41
16.3873234010998
 71
     1
 72
     5
  1
{\fTimes New Roman|b0|i0|c0|p18;NO E_2}
 11
0.0000000000000001
 21
1.0
 31
0.0
 73
     1
 44
1.0
1001
ACAD
1000
MTEXTBEGIN
1070
    73
1070
     1
1070
    44
1040
1.0
1070
    74
1070
     0
1000
MTEXTEND
  0
MTEXT
  5
436
330
1F
100
AcDbEntity
  8
0
100
AcDbMText
 10
168.2162788732973
 20
135.1635631184801
 30
0.0
 40
2.339449541284403
 41
16.3873234010998
 71
     1
 72
     5
  1
{\fTimes New Roman|b0|i0|c0|p18;NO F_1}
 11
0.0000000000000001
 21
1.0
 31
0.0
 73
     1
 44
1.0
1001
ACAD
1000
MTEXTBEGIN
1070
    73
1070
     1
1070
    44
1040
1.0
1070
    74
1070
     0
1000
MTEXTEND
  0
MTEXT
  5
437
330
1F
100
AcDbEntity
  8
0
100
AcDbMText
 10
173.3162788732973
 20
135.1635631184801
 30
0.0
 40
2.339449541284403
 41
16.3873234010998
 71
     1
 72
     5
  1
{\fTimes New Roman|b0|i0|c0|p18;NO F_2}
 11
0.0000000000000001
 21
1.0
 31
0.0
 73
     1
 44
1.0
1001
ACAD
1000
MTEXTBEGIN
1070
    73
1070
     1
1070
    44
1040
1.0
1070
    74
1070
     0
1000
MTEXTEND
  0
MTEXT
  5
438
330
1F
100
AcDbEntity
  8
0
100
AcDbMText
 10
76.56996967326195
 20
225.4761751833432
 30
0.0
 40
2.339449541284403
 41
20.90355474354091
 71
     1
 72
     5
  1
{\fTimes New Roman|b0|i0|c0|p18;POWER IN}
 11
0.0000000000000001
 21
1.0
 31
0.0
 73
     1
 44
1.0
1001
ACAD
1000
MTEXTBEGIN
1070
    73
1070
     1
1070
    44
1040
1.0
1070
    74
1070
     0
1000
MTEXTEND
  0
MTEXT
  5
439
330
1F
100
AcDbEntity
  8
0
100
AcDbMText
 10
81.66996967326197
 20
225.4761751833432
 30
0.0
 40
2.339449541284403
 41
16.3873234010998
 71
     1
 72
     5
  1
{\fTimes New Roman|b0|i0|c0|p18;GND}
 11
0.0000000000000001
 21
1.0
 31
0.0
 73
     1
 44
1.0
1001
ACAD
1000
MTEXTBEGIN
1070
    73
1070
     1
1070
    44
1040
1.0
1070
    74
1070
     0
1000
MTEXTEND
  0
MTEXT
  5
43A
330
1F
100
AcDbEntity
  8
0
100
AcDbMText
 10
96.96996967326192
 20
225.4761751833432
 30
0.0
 40
2.339449541284403
 41
16.3873234010998
 71
     1
 72
     5
  1
{\fTimes New Roman|b0|i0|c0|p18;NO2_1}
 11
0.0000000000000001
 21
1.0
 31
0.0
 73
     1
 44
1.0
1001
ACAD
1000
MTEXTBEGIN
1070
    73
1070
     1
1070
    44
1040
1.0
1070
    74
1070
     0
1000
MTEXTEND
  0
MTEXT
  5
43B
330
1F
100
AcDbEntity
  8
0
100
AcDbMText
 10
102.0699696732619
 20
225.4761751833432
 30
0.0
 40
2.339449541284403
 41
16.3873234010998
 71
     1
 72
     5
  1
{\fTimes New Roman|b0|i0|c0|p18;NO2_2}
 11
0.0000000000000001
 21
1.0
 31
0.0
 73
     1
 44
1.0
1001
ACAD
1000
MTEXTBEGIN
1070
    73
1070
     1
1070
    44
1040
1.0
1070
    74
1070
     0
1000
MTEXTEND
  0
MTEXT
  5
43C
330
1F
100
AcDbEntity
  8
0
100
AcDbMText
 10
107.1699696732619
 20
225.4761751833432
 30
0.0
 40
2.339449541284403
 41
16.3873234010998
 71
     1
 72
     5
  1
{\fTimes New Roman|b0|i0|c0|p18;NO3_1}
 11
0.0000000000000001
 21
1.0
 31
0.0
 73
     1
 44
1.0
1001
ACAD
1000
MTEXTBEGIN
1070
    73
1070
     1
1070
    44
1040
1.0
1070
    74
1070
     0
1000
MTEXTEND
  0
MTEXT
  5
43D
330
1F
100
AcDbEntity
  8
0
100
AcDbMText
 10
112.2699696732619
 20
225.4761751833432
 30
0.0
 40
2.339449541284403
 41
16.3873234010998
 71
     1
 72
     5
  1
{\fTimes New Roman|b0|i0|c0|p18;NO3_2}
 11
0.0000000000000001
 21
1.0
 31
0.0
 73
     1
 44
1.0
1001
ACAD
1000
MTEXTBEGIN
1070
    73
1070
     1
1070
    44
1040
1.0
1070
    74
1070
     0
1000
MTEXTEND
  0
MTEXT
  5
43E
330
1F
100
AcDbEntity
  8
0
100
AcDbMText
 10
117.3699696732619
 20
225.4761751833432
 30
0.0
 40
2.339449541284403
 41
16.3873234010998
 71
     1
 72
     5
  1
{\fTimes New Roman|b0|i0|c0|p18;NO4_1}
 11
0.0000000000000001
 21
1.0
 31
0.0
 73
     1
 44
1.0
1001
ACAD
1000
MTEXTBEGIN
1070
    73
1070
     1
1070
    44
1040
1.0
1070
    74
1070
     0
1000
MTEXTEND
  0
MTEXT
  5
43F
330
1F
100
AcDbEntity
  8
0
100
AcDbMText
 10
127.5699696732619
 20
225.4761751833432
 30
0.0
 40
2.339449541284403
 41
16.3873234010998
 71
     1
 72
     5
  1
{\fTimes New Roman|b0|i0|c0|p18;NO5_1}
 11
0.0000000000000001
 21
1.0
 31
0.0
 73
     1
 44
1.0
1001
ACAD
1000
MTEXTBEGIN
1070
    73
1070
     1
1070
    44
1040
1.0
1070
    74
1070
     0
1000
MTEXTEND
  0
MTEXT
  5
440
330
1F
100
AcDbEntity
  8
0
100
AcDbMText
 10
132.6699696732619
 20
225.4761751833432
 30
0.0
 40
2.339449541284403
 41
16.3873234010998
 71
     1
 72
     5
  1
{\fTimes New Roman|b0|i0|c0|p18;NO5_2}
 11
0.0000000000000001
 21
1.0
 31
0.0
 73
     1
 44
1.0
1001
ACAD
1000
MTEXTBEGIN
1070
    73
1070
     1
1070
    44
1040
1.0
1070
    74
1070
     0
1000
MTEXTEND
  0
MTEXT
  5
441
330
1F
100
AcDbEntity
  8
0
100
AcDbMText
 10
137.7699696732619
 20
225.4761751833432
 30
0.0
 40
2.339449541284403
 41
16.3873234010998
 71
     1
 72
     5
  1
{\fTimes New Roman|b0|i0|c0|p18;NO6_1}
 11
0.0000000000000001
 21
1.0
 31
0.0
 73
     1
 44
1.0
1001
ACAD
1000
MTEXTBEGIN
1070
    73
1070
     1
1070
    44
1040
1.0
1070
    74
1070
     0
1000
MTEXTEND
  0
MTEXT
  5
442
330
1F
100
AcDbEntity
  8
0
100
AcDbMText
 10
142.8699696732619
 20
225.4761751833432
 30
0.0
 40
2.339449541284403
 41
16.3873234010998
 71
     1
 72
     5
  1
{\fTimes New Roman|b0|i0|c0|p18;NO6_2}
 11
0.0000000000000001
 21
1.0
 31
0.0
 73
     1
 44
1.0
1001
ACAD
1000
MTEXTBEGIN
1070
    73
1070
     1
1070
    44
1040
1.0
1070
    74
1070
     0
1000
MTEXTEND
  0
MTEXT
  5
443
330
1F
100
AcDbEntity
  8
0
100
AcDbMText
 10
147.9699696732619
 20
225.4761751833432
 30
0.0
 40
2.339449541284403
 41
16.3873234010998
 71
     1
 72
     5
  1
{\fTimes New Roman|b0|i0|c0|p18;NO7_1}
 11
0.0000000000000001
 21
1.0
 31
0.0
 73
     1
 44
1.0
1001
ACAD
1000
MTEXTBEGIN
1070
    73
1070
     1
1070
    44
1040
1.0
1070
    74
1070
     0
1000
MTEXTEND
  0
MTEXT
  5
444
330
1F
100
AcDbEntity
  8
0
100
AcDbMText
 10
153.0699696732618
 20
225.4761751833432
 30
0.0
 40
2.339449541284403
 41
16.3873234010998
 71
     1
 72
     5
  1
{\fTimes New Roman|b0|i0|c0|p18;NO7_2}
 11
0.0000000000000001
 21
1.0
 31
0.0
 73
     1
 44
1.0
1001
ACAD
1000
MTEXTBEGIN
1070
    73
1070
     1
1070
    44
1040
1.0
1070
    74
1070
     0
1000
MTEXTEND
  0
MTEXT
  5
445
330
1F
100
AcDbEntity
  8
0
100
AcDbMText
 10
158.1699696732618
 20
225.4761751833432
 30
0.0
 40
2.339449541284403
 41
16.3873234010998
 71
     1
 72
     5
  1
{\fTimes New Roman|b0|i0|c0|p18;NO8_1}
 11
0.0000000000000001
 21
1.0
 31
0.0
 73
     1
 44
1.0
1001
ACAD
1000
MTEXTBEGIN
1070
    73
1070
     1
1070
    44
1040
1.0
1070
    74
1070
     0
1000
MTEXTEND
  0
MTEXT
  5
446
330
1F
100
AcDbEntity
  8
0
100
AcDbMText
 10
163.2699696732619
 20
225.4761751833432
 30
0.0
 40
2.339449541284403
 41
16.3873234010998
 71
     1
 72
     5
  1
{\fTimes New Roman|b0|i0|c0|p18;NO8_2}
 11
0.0000000000000001
 21
1.0
 31
0.0
 73
     1
 44
1.0
1001
ACAD
1000
MTEXTBEGIN
1070
    73
1070
     1
1070
    44
1040
1.0
1070
    74
1070
     0
1000
MTEXTEND
  0
MTEXT
  5
447
330
1F
100
AcDbEntity
  8
0
100
AcDbMText
 10
168.3699696732618
 20
225.4761751833432
 30
0.0
 40
2.339449541284403
 41
16.3873234010998
 71
     1
 72
     5
  1
{\fTimes New Roman|b0|i0|c0|p18;NO9_1}
 11
0.0000000000000001
 21
1.0
 31
0.0
 73
     1
 44
1.0
1001
ACAD
1000
MTEXTBEGIN
1070
    73
1070
     1
1070
    44
1040
1.0
1070
    74
1070
     0
1000
MTEXTEND
  0
MTEXT
  5
448
330
1F
100
AcDbEntity
  8
0
100
AcDbMText
 10
173.4699696732618
 20
225.4761751833432
 30
0.0
 40
2.339449541284403
 41
16.3873234010998
 71
     1
 72
     5
  1
{\fTimes New Roman|b0|i0|c0|p18;NO9_2}
 11
0.0000000000000001
 21
1.0
 31
0.0
 73
     1
 44
1.0
1001
ACAD
1000
MTEXTBEGIN
1070
    73
1070
     1
1070
    44
1040
1.0
1070
    74
1070
     0
1000
MTEXTEND
  0
MTEXT
  5
449
330
1F
100
AcDbEntity
  8
0
100
AcDbMText
 10
122.4699696732619
 20
225.4761751833432
 30
0.0
 40
2.339449541284403
 41
16.3873234010998
 71
     1
 72
     5
  1
{\fTimes New Roman|b0|i0|c0|p18;NO4_2}
 11
0.0000000000000001
 21
1.0
 31
0.0
 73
     1
 44
1.0
1001
ACAD
1000
MTEXTBEGIN
1070
    73
1070
     1
1070
    44
1040
1.0
1070
    74
1070
     0
1000
MTEXTEND
  0
LINE
  5
44A
330
1F
100
AcDbEntity
  8
0
 62
     4
100
AcDbLine
 10
74.82254438262391
 20
122.6738365865037
 30
0.0
 11
74.82254438262391
 21
135.1314053938433
 31
0.0
  0
MTEXT
  5
44B
330
1F
100
AcDbEntity
  8
0
100
AcDbMText
 10
86.76996967326187
 20
225.4761751833432
 30
0.0
 40
2.339449541284403
 41
16.3873234010998
 71
     1
 72
     5
  1
{\fTimes New Roman|b0|i0|c0|p18;NO1_1}
 11
0.0000000000000001
 21
1.0
 31
0.0
 73
     1
 44
1.0
1001
ACAD
1000
MTEXTBEGIN
1070
    73
1070
     1
1070
    44
1040
1.0
1070
    74
1070
     0
1000
MTEXTEND
  0
MTEXT
  5
44C
330
1F
100
AcDbEntity
  8
0
100
AcDbMText
 10
91.86996967326191
 20
225.4761751833432
 30
0.0
 40
2.339449541284403
 41
16.3873234010998
 71
     1
 72
     5
  1
{\fTimes New Roman|b0|i0|c0|p18;NO1_2}
 11
0.0000000000000001
 21
1.0
 31
0.0
 73
     1
 44
1.0
1001
ACAD
1000
MTEXTBEGIN
1070
    73
1070
     1
1070
    44
1040
1.0
1070
    74
1070
     0
1000
MTEXTEND
  0
MTEXT
  5
44D
330
1F
100
AcDbEntity
  8
0
100
AcDbMText
 10
117.2162788732974
 20
135.1635631184801
 30
0.0
 40
2.339449541284403
 41
16.3873234010998
 71
     1
 72
     5
  1
{\fTimes New Roman|b0|i0|c0|p18;NO A_1}
 11
0.0000000000000001
 21
1.0
 31
0.0
 73
     1
 44
1.0
1001
ACAD
1000
MTEXTBEGIN
1070
    73
1070
     1
1070
    44
1040
1.0
1070
    74
1070
     0
1000
MTEXTEND
  0
MTEXT
  5
44E
330
1F
100
AcDbEntity
  8
0
100
AcDbMText
 10
122.3162788732974
 20
135.1635631184801
 30
0.0
 40
2.339449541284403
 41
16.3873234010998
 71
     1
 72
     5
  1
{\fTimes New Roman|b0|i0|c0|p18;NO A_2}
 11
0.0000000000000001
 21
1.0
 31
0.0
 73
     1
 44
1.0
1001
ACAD
1000
MTEXTBEGIN
1070
    73
1070
     1
1070
    44
1040
1.0
1070
    74
1070
     0
1000
MTEXTEND
  0
LWPOLYLINE
  5
44F
330
1F
100
AcDbEntity
  8
0
 62
     4
100
AcDbPolyline
 90
        3
 70
     0
 43
0.0
 10
176.8225443826238
 20
122.7323228250359
 10
136.0225443826238
 20
122.7323228250359
 10
136.0225443826238
 20
135.1314053938433
  0
LWPOLYLINE
  5
450
330
1F
100
AcDbEntity
  8
0
 62
     4
100
AcDbPolyline
 90
        2
 70
     0
 43
0.0
 10
105.4225443826239
 20
130.1600751186138
 10
85.02254438262395
 20
130.1600751186138
  0
LWPOLYLINE
  5
451
330
1F
100
AcDbEntity
  8
0
 62
     4
100
AcDbPolyline
 90
        4
 70
     0
 43
0.0
 10
176.8225443826238
 20
130.160075118614
 10
136.0225443826238
 20
130.160075118614
 10
136.0225443826238
 20
122.6738365865037
 10
176.8225443826238
 20
122.6738365865037
  0
LWPOLYLINE
  5
452
330
1F
100
AcDbEntity
  8
0
 62
     4
100
AcDbPolyline
 90
        4
 70
     1
 43
0.0
 10
85.02254438262395
 20
130.160075118614
 10
85.02254438262395
 20
122.6738365865037
 10
90.12254438262404
 20
122.6738365865037
 10
90.12254438262404
 20
130.160075118614
  0
CIRCLE
  5
453
330
1F
100
AcDbEntity
  8
0
 62
     4
100
AcDbCircle
 10
87.57254438262403
 20
126.4461989718249
 30
0.0
 40
1.871559633027523
  0
LWPOLYLINE
  5
454
330
1F
100
AcDbEntity
  8
0
 62
     4
100
AcDbPolyline
 90
        4
 70
     1
 43
0.0
 10
88.60707705397045
 20
125.016925109551
 10
89.09232811598259
 20
125.5499071525598
 10
86.53801171127755
 20
127.8754728340989
 10
86.0527606492654
 20
127.3424907910901
  0
LWPOLYLINE
  5
455
330
1F
100
AcDbEntity
  8
0
 62
     4
100
AcDbPolyline
 90
        4
 70
     1
 43
0.0
 10
90.12254438262404
 20
130.160075118614
 10
90.12254438262404
 20
122.6738365865037
 10
95.22254438262406
 20
122.6738365865037
 10
95.22254438262406
 20
130.160075118614
  0
CIRCLE
  5
456
330
1F
100
AcDbEntity
  8
0
 62
     4
100
AcDbCircle
 10
92.67254438262394
 20
126.4461989718249
 30
0.0
 40
1.871559633027523
  0
LWPOLYLINE
  5
457
330
1F
100
AcDbEntity
  8
0
 62
     4
100
AcDbPolyline
 90
        4
 70
     1
 43
0.0
 10
93.70707705397048
 20
125.016925109551
 10
94.1923281159825
 20
125.5499071525598
 10
91.63801171127751
 20
127.8754728340989
 10
91.15276064926543
 20
127.3424907910901
  0
LWPOLYLINE
  5
458
330
1F
100
AcDbEntity
  8
0
 62
     4
100
AcDbPolyline
 90
        4
 70
     1
 43
0.0
 10
95.22254438262406
 20
130.160075118614
 10
95.22254438262406
 20
122.6738365865037
 10
100.322544382624
 20
122.6738365865037
 10
100.322544382624
 20
130.160075118614
  0
CIRCLE
  5
459
330
1F
100
AcDbEntity
  8
0
 62
     4
100
AcDbCircle
 10
97.77254438262396
 20
126.4461989718249
 30
0.0
 40
1.871559633027523
  0
LWPOLYLINE
  5
45A
330
1F
100
AcDbEntity
  8
0
 62
     4
100
AcDbPolyline
 90
        4
 70
     1
 43
0.0
 10
98.8070770539705
 20
125.016925109551
 10
99.29232811598259
 20
125.5499071525598
 10
96.73801171127754
 20
127.8754728340989
 10
96.25276064926545
 20
127.3424907910901
  0
LWPOLYLINE
  5
45B
330
1F
100
AcDbEntity
  8
0
 62
     4
100
AcDbPolyline
 90
        4
 70
     1
 43
0.0
 10
100.322544382624
 20
130.160075118614
 10
100.322544382624
 20
122.6738365865037
 10
105.4225443826239
 20
122.6738365865037
 10
105.4225443826239
 20
130.160075118614
  0
CIRCLE
  5
45C
330
1F
100
AcDbEntity
  8
0
 62
     4
100
AcDbCircle
 10
102.872544382624
 20
126.4461989718249
 30
0.0
 40
1.871559633027523
  0
LWPOLYLINE
  5
45D
330
1F
100
AcDbEntity
  8
0
 62
     4
100
AcDbPolyline
 90
        4
 70
     1
 43
0.0
 10
103.9070770539705
 20
125.016925109551
 10
104.3923281159825
 20
125.5499071525598
 10
101.8380117112775
 20
127.8754728340989
 10
101.3527606492654
 20
127.3424907910901
  0
LWPOLYLINE
  5
45E
330
1F
100
AcDbEntity
  8
0
 62
     4
100
AcDbPolyline
 90
        2
 70
     0
 43
0.0
 10
105.4225443826239
 20
130.160075118614
 10
105.4225443826239
 20
122.6738365865037
  0
MTEXT
  5
45F
330
1F
100
AcDbEntity
  8
0
100
AcDbMText
 10
101.9162788732975
 20
135.1635631184801
 30
0.0
 40
2.339449541284403
 41
16.3873234010998
 71
     1
 72
     5
  1
{\fTimes New Roman|b0|i0|c0|p18;GND}
 11
0.0000000000000001
 21
1.0
 31
0.0
 73
     1
 44
1.0
1001
ACAD
1000
MTEXTBEGIN
1070
    73
1070
     1
1070
    44
1040
1.0
1070
    74
1070
     0
1000
MTEXTEND
  0
MTEXT
  5
460
330
1F
100
AcDbEntity
  8
0
100
AcDbMText
 10
86.61627887329748
 20
135.1635631184801
 30
0.0
 40
2.339449541284403
 41
16.3873234010998
 71
     1
 72
     5
  1
{\fTimes New Roman|b0|i0|c0|p18;NET2 +}
 11
0.0000000000000001
 21
1.0
 31
0.0
 73
     1
 44
1.0
1001
ACAD
1000
MTEXTBEGIN
1070
    73
1070
     1
1070
    44
1040
1.0
1070
    74
1070
     0
1000
MTEXTEND
  0
MTEXT
  5
461
330
1F
100
AcDbEntity
  8
0
100
AcDbMText
 10
91.7162788732975
 20
135.1635631184801
 30
0.0
 40
2.339449541284403
 41
16.3873234010998
 71
     1
 72
     5
  1
{\fTimes New Roman|b0|i0|c0|p18;NET2 -}
 11
0.0000000000000001
 21
1.0
 31
0.0
 73
     1
 44
1.0
1001
ACAD
1000
MTEXTBEGIN
1070
    73
1070
     1
1070
    44
1040
1.0
1070
    74
1070
     0
1000
MTEXTEND
  0
LINE
  5
462
330
1F
100
AcDbEntity
  8
0
 62
     4
100
AcDbLine
 10
105.4225443826239
 20
122.6738365865037
 30
0.0
 11
105.4225443826239
 21
135.1314053938433
 31
0.0
  0
LINE
  5
463
330
1F
100
AcDbEntity
  8
0
 62
     4
100
AcDbLine
 10
176.8225443826238
 20
122.6738365865037
 30
0.0
 11
176.8225443826238
 21
135.1314053938433
 31
0.0
  0
LWPOLYLINE
  5
464
330
1F
100
AcDbEntity
  8
0
 62
     4
100
AcDbPolyline
 90
        4
 70
     1
 43
0.0
 10
74.82254438262391
 20
130.160075118614
 10
74.82254438262391
 20
122.6738365865037
 10
79.92254438262394
 20
122.6738365865037
 10
79.92254438262394
 20
130.160075118614
  0
CIRCLE
  5
465
330
1F
100
AcDbEntity
  8
0
 62
     4
100
AcDbCircle
 10
77.37254438262393
 20
126.4461989718249
 30
0.0
 40
1.871559633027523
  0
LWPOLYLINE
  5
466
330
1F
100
AcDbEntity
  8
0
 62
     4
100
AcDbPolyline
 90
        4
 70
     1
 43
0.0
 10
78.40707705397035
 20
125.016925109551
 10
78.89232811598249
 20
125.5499071525598
 10
76.3380117112775
 20
127.8754728340989
 10
75.85276064926531
 20
127.3424907910901
  0
LWPOLYLINE
  5
467
330
1F
100
AcDbEntity
  8
0
 62
     4
100
AcDbPolyline
 90
        4
 70
     1
 43
0.0
 10
79.92254438262394
 20
130.160075118614
 10
79.92254438262394
 20
122.6738365865037
 10
85.02254438262395
 20
122.6738365865037
 10
85.02254438262395
 20
130.160075118614
  0
CIRCLE
  5
468
330
1F
100
AcDbEntity
  8
0
 62
     4
100
AcDbCircle
 10
82.47254438262384
 20
126.4461989718249
 30
0.0
 40
1.871559633027523
  0
LWPOLYLINE
  5
469
330
1F
100
AcDbEntity
  8
0
 62
     4
100
AcDbPolyline
 90
        4
 70
     1
 43
0.0
 10
83.50707705397038
 20
125.016925109551
 10
83.99232811598245
 20
125.5499071525598
 10
81.43801171127741
 20
127.8754728340989
 10
80.95276064926538
 20
127.3424907910901
  0
MTEXT
  5
46A
330
1F
100
AcDbEntity
  8
0
100
AcDbMText
 10
76.41627887329754
 20
135.1635631184804
 30
0.0
 40
2.339449541284403
 41
16.3873234010998
 71
     1
 72
     5
  1
{\fTimes New Roman|b0|i0|c0|p18;NET1 +}
 11
0.0000000000000001
 21
1.0
 31
0.0
 73
     1
 44
1.0
1001
ACAD
1000
MTEXTBEGIN
1070
    73
1070
     1
1070
    44
1040
1.0
1070
    74
1070
     0
1000
MTEXTEND
  0
MTEXT
  5
46B
330
1F
100
AcDbEntity
  8
0
100
AcDbMText
 10
81.5162788732975
 20
135.1635631184804
 30
0.0
 40
2.339449541284403
 41
16.3873234010998
 71
     1
 72
     5
  1
{\fTimes New Roman|b0|i0|c0|p18;NET1 -}
 11
0.0000000000000001
 21
1.0
 31
0.0
 73
     1
 44
1.0
1001
ACAD
1000
MTEXTBEGIN
1070
    73
1070
     1
1070
    44
1040
1.0
1070
    74
1070
     0
1000
MTEXTEND
  0
MTEXT
  5
46C
330
1F
100
AcDbEntity
  8
0
100
AcDbMText
 10
96.81627887329753
 20
135.1635631184801
 30
0.0
 40
2.339449541284403
 41
16.3873234010998
 71
     1
 72
     5
  1
{\fTimes New Roman|b0|i0|c0|p18;GND}
 11
0.0000000000000001
 21
1.0
 31
0.0
 73
     1
 44
1.0
1001
ACAD
1000
MTEXTBEGIN
1070
    73
1070
     1
1070
    44
1040
1.0
1070
    74
1070
     0
1000
MTEXTEND
  0
LWPOLYLINE
  5
46D
330
1F
100
AcDbEntity
  8
0
 62
     3
100
AcDbPolyline
 90
        4
 70
     1
 43
0.0
 10
160.6475443826239
 20
157.8814053938431
 10
172.6475443826239
 20
157.8814053938431
 10
172.6475443826239
 20
155.8814053938431
 10
160.6475443826239
 20
155.8814053938431
  0
LINE
  5
46E
330
1F
100
AcDbEntity
  8
0
100
AcDbLine
 10
67.07254438262386
 20
80.07893180683778
 30
0.0
 11
67.07254438262386
 21
75.07893180683777
 31
0.0
  0
LINE
  5
46F
330
1F
100
AcDbEntity
  8
0
100
AcDbLine
 10
67.07254438262386
 20
74.07893180683777
 30
0.0
 11
67.07254438262386
 21
31.07893180683777
 31
0.0
  0
LINE
  5
470
330
1F
100
AcDbEntity
  8
0
100
AcDbLine
 10
67.07254438262386
 20
31.07893180683777
 30
0.0
 11
115.7163331598529
 21
31.07893180683777
 31
0.0
  0
LINE
  5
471
330
1F
100
AcDbEntity
  8
0
100
AcDbLine
 10
136.9287556036704
 20
31.07893180683777
 30
0.0
 11
185.5725443808995
 21
31.07893180683777
 31
0.0
  0
LINE
  5
472
330
1F
100
AcDbEntity
  8
0
100
AcDbLine
 10
185.5725443808995
 20
31.07893180683777
 30
0.0
 11
185.5725443808995
 21
80.07893180683778
 31
0.0
  0
LINE
  5
473
330
1F
100
AcDbEntity
  8
0
100
AcDbLine
 10
184.5725443808996
 20
81.07893180683777
 30
0.0
 11
68.07254438262397
 21
81.07893180683777
 31
0.0
  0
LINE
  5
474
330
1F
100
AcDbEntity
  8
0
100
AcDbLine
 10
67.07254438262386
 20
75.07893180683777
 30
0.0
 11
185.5725443808995
 21
75.07893180683777
 31
0.0
  0
LINE
  5
475
330
1F
100
AcDbEntity
  8
0
100
AcDbLine
 10
67.07254438262386
 20
55.07893180683777
 30
0.0
 11
185.5725443808995
 21
55.07893180683777
 31
0.0
  0
LINE
  5
476
330
1F
100
AcDbEntity
  8
0
100
AcDbLine
 10
67.07254438262386
 20
55.07893180683777
 30
0.0
 11
67.07254438262386
 21
35.07893180683777
 31
0.0
  0
LINE
  5
477
330
1F
100
AcDbEntity
  8
0
100
AcDbLine
 10
67.07254438262386
 20
35.07893180683777
 30
0.0
 11
185.5725443808995
 21
35.07893180683777
 31
0.0
  0
LINE
  5
478
330
1F
100
AcDbEntity
  8
0
100
AcDbLine
 10
67.07254438262386
 20
31.07893180683777
 30
0.0
 11
67.07254438262386
 21
26.07893180683777
 31
0.0
  0
LINE
  5
479
102
{ACAD_REACTORS
330
51D
102
}
330
1F
100
AcDbEntity
  8
0
100
AcDbLine
 10
67.07254438262386
 20
26.07893180683777
 30
0.0
 11
185.5725443808995
 21
26.07893180683777
 31
0.0
  0
LINE
  5
47A
330
1F
100
AcDbEntity
  8
0
100
AcDbLine
 10
185.5725443808995
 20
26.07893180683777
 30
0.0
 11
185.5725443808995
 21
31.07893180683777
 31
0.0
  0
LINE
  5
47B
330
1F
100
AcDbEntity
  8
0
100
AcDbLine
 10
67.07254438262386
 20
75.07893180683777
 30
0.0
 11
77.07254438262386
 21
75.07893180683777
 31
0.0
  0
LINE
  5
47C
330
1F
100
AcDbEntity
  8
0
100
AcDbLine
 10
67.07254438262386
 20
75.07893180683777
 30
0.0
 11
72.07254438262386
 21
75.07893180683777
 31
0.0
  0
LINE
  5
47D
330
1F
100
AcDbEntity
  8
0
100
AcDbLine
 10
75.32254438176166
 20
75.07893180683777
 30
0.0
 11
75.32254438176166
 21
55.07893180683777
 31
0.0
  0
LWPOLYLINE
  5
47E
330
1F
100
AcDbEntity
  8
0
100
AcDbPolyline
 90
        4
 70
     1
 43
0.0
 10
75.32254438176166
 20
55.07893180683777
 10
77.32254438176166
 20
55.07893180683777
 10
77.32254438176166
 20
75.07893180683777
 10
75.32254438176166
 20
75.07893180683777
  0
LWPOLYLINE
  5
47F
330
1F
100
AcDbEntity
  8
0
100
AcDbPolyline
 90
        4
 70
     1
 43
0.0
 10
77.32254438176166
 20
55.07893180683777
 10
79.32254438176165
 20
55.07893180683777
 10
79.32254438176165
 20
75.07893180683777
 10
77.32254438176166
 20
75.07893180683777
  0
LWPOLYLINE
  5
480
330
1F
100
AcDbEntity
  8
0
100
AcDbPolyline
 90
        4
 70
     1
 43
0.0
 10
79.32254438176165
 20
55.07893180683777
 10
81.32254438176166
 20
55.07893180683777
 10
81.32254438176166
 20
75.07893180683777
 10
79.32254438176165
 20
75.07893180683777
  0
LWPOLYLINE
  5
481
330
1F
100
AcDbEntity
  8
0
100
AcDbPolyline
 90
        4
 70
     1
 43
0.0
 10
81.32254438176166
 20
55.07893180683777
 10
83.32254438176166
 20
55.07893180683777
 10
83.32254438176166
 20
75.07893180683777
 10
81.32254438176166
 20
75.07893180683777
  0
LWPOLYLINE
  5
482
330
1F
100
AcDbEntity
  8
0
100
AcDbPolyline
 90
        4
 70
     1
 43
0.0
 10
83.32254438176166
 20
55.07893180683777
 10
85.32254438176165
 20
55.07893180683777
 10
85.32254438176165
 20
75.07893180683777
 10
83.32254438176166
 20
75.07893180683777
  0
LWPOLYLINE
  5
483
330
1F
100
AcDbEntity
  8
0
100
AcDbPolyline
 90
        4
 70
     1
 43
0.0
 10
85.32254438176165
 20
55.07893180683777
 10
87.32254438176166
 20
55.07893180683777
 10
87.32254438176166
 20
75.07893180683777
 10
85.32254438176165
 20
75.07893180683777
  0
LWPOLYLINE
  5
484
330
1F
100
AcDbEntity
  8
0
100
AcDbPolyline
 90
        4
 70
     1
 43
0.0
 10
87.32254438176166
 20
55.07893180683777
 10
89.32254438176165
 20
55.07893180683777
 10
89.32254438176165
 20
75.07893180683777
 10
87.32254438176166
 20
75.07893180683777
  0
LWPOLYLINE
  5
485
330
1F
100
AcDbEntity
  8
0
100
AcDbPolyline
 90
        4
 70
     1
 43
0.0
 10
89.32254438176165
 20
55.07893180683777
 10
91.32254438176166
 20
55.07893180683777
 10
91.32254438176166
 20
75.07893180683777
 10
89.32254438176165
 20
75.07893180683777
  0
LWPOLYLINE
  5
486
330
1F
100
AcDbEntity
  8
0
100
AcDbPolyline
 90
        4
 70
     1
 43
0.0
 10
91.32254438176166
 20
55.07893180683777
 10
93.32254438176166
 20
55.07893180683777
 10
93.32254438176166
 20
75.07893180683777
 10
91.32254438176166
 20
75.07893180683777
  0
LWPOLYLINE
  5
487
330
1F
100
AcDbEntity
  8
0
100
AcDbPolyline
 90
        4
 70
     1
 43
0.0
 10
93.32254438176166
 20
55.07893180683777
 10
95.32254438176165
 20
55.07893180683777
 10
95.32254438176165
 20
75.07893180683777
 10
93.32254438176166
 20
75.07893180683777
  0
LWPOLYLINE
  5
488
330
1F
100
AcDbEntity
  8
0
100
AcDbPolyline
 90
        4
 70
     1
 43
0.0
 10
95.32254438176165
 20
55.07893180683777
 10
97.3225443817617
 20
55.07893180683777
 10
97.3225443817617
 20
75.07893180683777
 10
95.32254438176165
 20
75.07893180683777
  0
LWPOLYLINE
  5
489
330
1F
100
AcDbEntity
  8
0
100
AcDbPolyline
 90
        4
 70
     1
 43
0.0
 10
97.3225443817617
 20
55.07893180683777
 10
99.32254438176169
 20
55.07893180683777
 10
99.32254438176169
 20
75.07893180683777
 10
97.3225443817617
 20
75.07893180683777
  0
LWPOLYLINE
  5
48A
330
1F
100
AcDbEntity
  8
0
100
AcDbPolyline
 90
        4
 70
     1
 43
0.0
 10
99.32254438176169
 20
55.07893180683777
 10
101.3225443817617
 20
55.07893180683777
 10
101.3225443817617
 20
75.07893180683777
 10
99.32254438176169
 20
75.07893180683777
  0
LWPOLYLINE
  5
48B
330
1F
100
AcDbEntity
  8
0
100
AcDbPolyline
 90
        4
 70
     1
 43
0.0
 10
101.3225443817617
 20
55.07893180683777
 10
103.3225443817617
 20
55.07893180683777
 10
103.3225443817617
 20
75.07893180683777
 10
101.3225443817617
 20
75.07893180683777
  0
LWPOLYLINE
  5
48C
330
1F
100
AcDbEntity
  8
0
100
AcDbPolyline
 90
        4
 70
     1
 43
0.0
 10
103.3225443817617
 20
55.07893180683777
 10
105.3225443817617
 20
55.07893180683777
 10
105.3225443817617
 20
75.07893180683777
 10
103.3225443817617
 20
75.07893180683777
  0
LWPOLYLINE
  5
48D
330
1F
100
AcDbEntity
  8
0
100
AcDbPolyline
 90
        4
 70
     1
 43
0.0
 10
105.3225443817617
 20
55.07893180683777
 10
107.3225443817617
 20
55.07893180683777
 10
107.3225443817617
 20
75.07893180683777
 10
105.3225443817617
 20
75.07893180683777
  0
LWPOLYLINE
  5
48E
330
1F
100
AcDbEntity
  8
0
100
AcDbPolyline
 90
        4
 70
     1
 43
0.0
 10
107.3225443817617
 20
55.07893180683777
 10
109.3225443817617
 20
55.07893180683777
 10
109.3225443817617
 20
75.07893180683777
 10
107.3225443817617
 20
75.07893180683777
  0
LWPOLYLINE
  5
48F
330
1F
100
AcDbEntity
  8
0
100
AcDbPolyline
 90
        4
 70
     1
 43
0.0
 10
109.3225443817617
 20
55.07893180683777
 10
111.3225443817617
 20
55.07893180683777
 10
111.3225443817617
 20
75.07893180683777
 10
109.3225443817617
 20
75.07893180683777
  0
LWPOLYLINE
  5
490
330
1F
100
AcDbEntity
  8
0
100
AcDbPolyline
 90
        4
 70
     1
 43
0.0
 10
111.3225443817617
 20
55.07893180683777
 10
113.3225443817617
 20
55.07893180683777
 10
113.3225443817617
 20
75.07893180683777
 10
111.3225443817617
 20
75.07893180683777
  0
LWPOLYLINE
  5
491
330
1F
100
AcDbEntity
  8
0
100
AcDbPolyline
 90
        4
 70
     1
 43
0.0
 10
113.3225443817617
 20
55.07893180683777
 10
115.3225443817617
 20
55.07893180683777
 10
115.3225443817617
 20
75.07893180683777
 10
113.3225443817617
 20
75.07893180683777
  0
LWPOLYLINE
  5
492
330
1F
100
AcDbEntity
  8
0
100
AcDbPolyline
 90
        4
 70
     1
 43
0.0
 10
115.3225443817617
 20
55.07893180683777
 10
117.3225443817617
 20
55.07893180683777
 10
117.3225443817617
 20
75.07893180683777
 10
115.3225443817617
 20
75.07893180683777
  0
LWPOLYLINE
  5
493
330
1F
100
AcDbEntity
  8
0
100
AcDbPolyline
 90
        4
 70
     1
 43
0.0
 10
117.3225443817617
 20
55.07893180683777
 10
119.3225443817617
 20
55.07893180683777
 10
119.3225443817617
 20
75.07893180683777
 10
117.3225443817617
 20
75.07893180683777
  0
LWPOLYLINE
  5
494
330
1F
100
AcDbEntity
  8
0
100
AcDbPolyline
 90
        4
 70
     1
 43
0.0
 10
119.3225443817617
 20
55.07893180683777
 10
121.3225443817617
 20
55.07893180683777
 10
121.3225443817617
 20
75.07893180683777
 10
119.3225443817617
 20
75.07893180683777
  0
LWPOLYLINE
  5
495
330
1F
100
AcDbEntity
  8
0
100
AcDbPolyline
 90
        4
 70
     1
 43
0.0
 10
121.3225443817617
 20
55.07893180683777
 10
123.3225443817617
 20
55.07893180683777
 10
123.3225443817617
 20
75.07893180683777
 10
121.3225443817617
 20
75.07893180683777
  0
LWPOLYLINE
  5
496
330
1F
100
AcDbEntity
  8
0
100
AcDbPolyline
 90
        4
 70
     1
 43
0.0
 10
123.3225443817617
 20
55.07893180683777
 10
125.3225443817617
 20
55.07893180683777
 10
125.3225443817617
 20
75.07893180683777
 10
123.3225443817617
 20
75.07893180683777
  0
LWPOLYLINE
  5
497
330
1F
100
AcDbEntity
  8
0
100
AcDbPolyline
 90
        4
 70
     1
 43
0.0
 10
125.3225443817617
 20
55.07893180683777
 10
127.3225443817617
 20
55.07893180683777
 10
127.3225443817617
 20
75.07893180683777
 10
125.3225443817617
 20
75.07893180683777
  0
LWPOLYLINE
  5
498
330
1F
100
AcDbEntity
  8
0
100
AcDbPolyline
 90
        4
 70
     1
 43
0.0
 10
127.3225443817617
 20
55.07893180683777
 10
129.3225443817617
 20
55.07893180683777
 10
129.3225443817617
 20
75.07893180683777
 10
127.3225443817617
 20
75.07893180683777
  0
LWPOLYLINE
  5
499
330
1F
100
AcDbEntity
  8
0
100
AcDbPolyline
 90
        4
 70
     1
 43
0.0
 10
129.3225443817617
 20
55.07893180683777
 10
131.3225443817617
 20
55.07893180683777
 10
131.3225443817617
 20
75.07893180683777
 10
129.3225443817617
 20
75.07893180683777
  0
LWPOLYLINE
  5
49A
330
1F
100
AcDbEntity
  8
0
100
AcDbPolyline
 90
        4
 70
     1
 43
0.0
 10
131.3225443817617
 20
55.07893180683777
 10
133.3225443817617
 20
55.07893180683777
 10
133.3225443817617
 20
75.07893180683777
 10
131.3225443817617
 20
75.07893180683777
  0
LWPOLYLINE
  5
49B
330
1F
100
AcDbEntity
  8
0
100
AcDbPolyline
 90
        4
 70
     1
 43
0.0
 10
133.3225443817617
 20
55.07893180683777
 10
135.3225443817617
 20
55.07893180683777
 10
135.3225443817617
 20
75.07893180683777
 10
133.3225443817617
 20
75.07893180683777
  0
LWPOLYLINE
  5
49C
330
1F
100
AcDbEntity
  8
0
100
AcDbPolyline
 90
        4
 70
     1
 43
0.0
 10
135.3225443817617
 20
55.07893180683777
 10
137.3225443817617
 20
55.07893180683777
 10
137.3225443817617
 20
75.07893180683777
 10
135.3225443817617
 20
75.07893180683777
  0
LWPOLYLINE
  5
49D
330
1F
100
AcDbEntity
  8
0
100
AcDbPolyline
 90
        4
 70
     1
 43
0.0
 10
137.3225443817617
 20
55.07893180683777
 10
139.3225443817617
 20
55.07893180683777
 10
139.3225443817617
 20
75.07893180683777
 10
137.3225443817617
 20
75.07893180683777
  0
LWPOLYLINE
  5
49E
330
1F
100
AcDbEntity
  8
0
100
AcDbPolyline
 90
        4
 70
     1
 43
0.0
 10
139.3225443817617
 20
55.07893180683777
 10
141.3225443817617
 20
55.07893180683777
 10
141.3225443817617
 20
75.07893180683777
 10
139.3225443817617
 20
75.07893180683777
  0
LWPOLYLINE
  5
49F
330
1F
100
AcDbEntity
  8
0
100
AcDbPolyline
 90
        4
 70
     1
 43
0.0
 10
141.3225443817617
 20
55.07893180683777
 10
143.3225443817617
 20
55.07893180683777
 10
143.3225443817617
 20
75.07893180683777
 10
141.3225443817617
 20
75.07893180683777
  0
LWPOLYLINE
  5
4A0
330
1F
100
AcDbEntity
  8
0
100
AcDbPolyline
 90
        4
 70
     1
 43
0.0
 10
143.3225443817617
 20
55.07893180683777
 10
145.3225443817617
 20
55.07893180683777
 10
145.3225443817617
 20
75.07893180683777
 10
143.3225443817617
 20
75.07893180683777
  0
LWPOLYLINE
  5
4A1
330
1F
100
AcDbEntity
  8
0
100
AcDbPolyline
 90
        4
 70
     1
 43
0.0
 10
145.3225443817617
 20
55.07893180683777
 10
147.3225443817617
 20
55.07893180683777
 10
147.3225443817617
 20
75.07893180683777
 10
145.3225443817617
 20
75.07893180683777
  0
LWPOLYLINE
  5
4A2
330
1F
100
AcDbEntity
  8
0
100
AcDbPolyline
 90
        4
 70
     1
 43
0.0
 10
147.3225443817617
 20
55.07893180683777
 10
149.3225443817617
 20
55.07893180683777
 10
149.3225443817617
 20
75.07893180683777
 10
147.3225443817617
 20
75.07893180683777
  0
LWPOLYLINE
  5
4A3
330
1F
100
AcDbEntity
  8
0
100
AcDbPolyline
 90
        4
 70
     1
 43
0.0
 10
149.3225443817617
 20
55.07893180683777
 10
151.3225443817617
 20
55.07893180683777
 10
151.3225443817617
 20
75.07893180683777
 10
149.3225443817617
 20
75.07893180683777
  0
LWPOLYLINE
  5
4A4
330
1F
100
AcDbEntity
  8
0
100
AcDbPolyline
 90
        4
 70
     1
 43
0.0
 10
151.3225443817617
 20
55.07893180683777
 10
153.3225443817617
 20
55.07893180683777
 10
153.3225443817617
 20
75.07893180683777
 10
151.3225443817617
 20
75.07893180683777
  0
LWPOLYLINE
  5
4A5
330
1F
100
AcDbEntity
  8
0
100
AcDbPolyline
 90
        4
 70
     1
 43
0.0
 10
153.3225443817617
 20
55.07893180683777
 10
155.3225443817617
 20
55.07893180683777
 10
155.3225443817617
 20
75.07893180683777
 10
153.3225443817617
 20
75.07893180683777
  0
LWPOLYLINE
  5
4A6
330
1F
100
AcDbEntity
  8
0
100
AcDbPolyline
 90
        4
 70
     1
 43
0.0
 10
155.3225443817617
 20
55.07893180683777
 10
157.3225443817617
 20
55.07893180683777
 10
157.3225443817617
 20
75.07893180683777
 10
155.3225443817617
 20
75.07893180683777
  0
LWPOLYLINE
  5
4A7
330
1F
100
AcDbEntity
  8
0
100
AcDbPolyline
 90
        4
 70
     1
 43
0.0
 10
157.3225443817617
 20
55.07893180683777
 10
159.3225443817617
 20
55.07893180683777
 10
159.3225443817617
 20
75.07893180683777
 10
157.3225443817617
 20
75.07893180683777
  0
LWPOLYLINE
  5
4A8
330
1F
100
AcDbEntity
  8
0
100
AcDbPolyline
 90
        4
 70
     1
 43
0.0
 10
159.3225443817617
 20
55.07893180683777
 10
161.3225443817617
 20
55.07893180683777
 10
161.3225443817617
 20
75.07893180683777
 10
159.3225443817617
 20
75.07893180683777
  0
LWPOLYLINE
  5
4A9
330
1F
100
AcDbEntity
  8
0
100
AcDbPolyline
 90
        4
 70
     1
 43
0.0
 10
161.3225443817617
 20
55.07893180683777
 10
163.3225443817617
 20
55.07893180683777
 10
163.3225443817617
 20
75.07893180683777
 10
161.3225443817617
 20
75.07893180683777
  0
LWPOLYLINE
  5
4AA
330
1F
100
AcDbEntity
  8
0
100
AcDbPolyline
 90
        4
 70
     1
 43
0.0
 10
163.3225443817617
 20
55.07893180683777
 10
165.3225443817617
 20
55.07893180683777
 10
165.3225443817617
 20
75.07893180683777
 10
163.3225443817617
 20
75.07893180683777
  0
LWPOLYLINE
  5
4AB
330
1F
100
AcDbEntity
  8
0
100
AcDbPolyline
 90
        4
 70
     1
 43
0.0
 10
165.3225443817617
 20
55.07893180683777
 10
167.3225443817617
 20
55.07893180683777
 10
167.3225443817617
 20
75.07893180683777
 10
165.3225443817617
 20
75.07893180683777
  0
LWPOLYLINE
  5
4AC
330
1F
100
AcDbEntity
  8
0
100
AcDbPolyline
 90
        4
 70
     1
 43
0.0
 10
167.3225443817617
 20
55.07893180683777
 10
169.3225443817617
 20
55.07893180683777
 10
169.3225443817617
 20
75.07893180683777
 10
167.3225443817617
 20
75.07893180683777
  0
LWPOLYLINE
  5
4AD
330
1F
100
AcDbEntity
  8
0
100
AcDbPolyline
 90
        4
 70
     1
 43
0.0
 10
169.3225443817617
 20
55.07893180683777
 10
171.3225443817617
 20
55.07893180683777
 10
171.3225443817617
 20
75.07893180683777
 10
169.3225443817617
 20
75.07893180683777
  0
LWPOLYLINE
  5
4AE
330
1F
100
AcDbEntity
  8
0
100
AcDbPolyline
 90
        4
 70
     1
 43
0.0
 10
171.3225443817617
 20
55.07893180683777
 10
173.3225443817617
 20
55.07893180683777
 10
173.3225443817617
 20
75.07893180683777
 10
171.3225443817617
 20
75.07893180683777
  0
LWPOLYLINE
  5
4AF
330
1F
100
AcDbEntity
  8
0
100
AcDbPolyline
 90
        4
 70
     1
 43
0.0
 10
173.3225443817617
 20
55.07893180683777
 10
175.3225443817617
 20
55.07893180683777
 10
175.3225443817617
 20
75.07893180683777
 10
173.3225443817617
 20
75.07893180683777
  0
LWPOLYLINE
  5
4B0
330
1F
100
AcDbEntity
  8
0
100
AcDbPolyline
 90
        4
 70
     1
 43
0.0
 10
175.3225443817617
 20
55.07893180683777
 10
177.3225443817617
 20
55.07893180683777
 10
177.3225443817617
 20
75.07893180683777
 10
175.3225443817617
 20
75.07893180683777
  0
LWPOLYLINE
  5
4B1
330
1F
100
AcDbEntity
  8
0
100
AcDbPolyline
 90
        4
 70
     1
 43
0.0
 10
115.7163331598529
 20
32.01823739417432
 10
136.9287556036704
 20
32.01823739417432
 10
136.9287556036704
 20
28.77267699401591
 10
115.7163331598529
 20
28.77267699401591
  0
LWPOLYLINE
  5
4B2
330
1F
100
AcDbEntity
  8
0
100
AcDbPolyline
 90
        4
 70
     1
 43
0.0
 10
123.1912768839147
 20
28.77267699401591
 10
129.3991243056012
 20
28.77267699401591
 10
129.3991243056012
 20
26.07893180683777
 10
123.1912768839147
 20
26.07893180683777
  0
LINE
  5
4B3
330
1F
100
AcDbEntity
  8
0
100
AcDbLine
 10
122.6912768839147
 20
28.77267699401591
 30
0.0
 11
122.6912768839147
 21
26.07893180683777
 31
0.0
  0
LINE
  5
4B4
330
1F
100
AcDbEntity
  8
0
100
AcDbLine
 10
129.3991243056012
 20
28.77267699401591
 30
0.0
 11
129.8991243056012
 21
28.77267699401591
 31
0.0
  0
LINE
  5
4B5
330
1F
100
AcDbEntity
  8
0
100
AcDbLine
 10
129.8991243056012
 20
28.77267699401591
 30
0.0
 11
129.8991243056012
 21
26.07893180683777
 31
0.0
  0
LINE
  5
4B6
330
1F
100
AcDbEntity
  8
0
100
AcDbLine
 10
75.32254438176166
 20
53.07893180683777
 30
0.0
 11
75.32254438176166
 21
35.07893180683777
 31
0.0
  0
LINE
  5
4B7
330
1F
100
AcDbEntity
  8
0
100
AcDbLine
 10
177.3225443817617
 20
53.07893180683777
 30
0.0
 11
177.3225443817617
 21
35.07893180683777
 31
0.0
  0
LINE
  5
4B8
330
1F
100
AcDbEntity
  8
0
100
AcDbLine
 10
177.3225443817617
 20
53.07893180683777
 30
0.0
 11
75.32254438176166
 21
53.07893180683777
 31
0.0
  0
LWPOLYLINE
  5
4B9
330
1F
100
AcDbEntity
  8
0
 62
     4
100
AcDbPolyline
 90
        4
 70
     0
 43
0.0
 10
96.32254438176154
 20
51.79236851381256
 10
76.32254438176154
 20
51.79236851381256
 10
76.32254438176154
 20
35.79236851381256
 10
96.32254438176154
 20
35.79236851381256
  0
LWPOLYLINE
  5
4BA
330
1F
100
AcDbEntity
  8
0
 62
     4
100
AcDbPolyline
 90
        2
 70
     0
 43
0.0
 10
96.32254438176154
 20
37.29236851381256
 10
96.32254438176154
 20
43.79236851381256
  0
LINE
  5
4BB
330
1F
100
AcDbEntity
  8
0
 62
     4
100
AcDbLine
 10
86.32254438176154
 20
37.29236851381256
 30
0.0
 11
86.32254438176154
 21
43.79236851381256
 31
0.0
  0
LINE
  5
4BC
330
1F
100
AcDbEntity
  8
0
 62
     4
100
AcDbLine
 10
96.32254438176154
 20
43.79236851381256
 30
0.0
 11
76.32254438176154
 21
43.79236851381256
 31
0.0
  0
LINE
  5
4BD
330
1F
100
AcDbEntity
  8
0
 62
     4
100
AcDbLine
 10
91.32254438176154
 20
37.29236851381256
 30
0.0
 11
91.32254438176154
 21
43.79236851381256
 31
0.0
  0
LINE
  5
4BE
330
1F
100
AcDbEntity
  8
0
 62
     4
100
AcDbLine
 10
81.32254438176154
 20
37.29236851381256
 30
0.0
 11
81.32254438176154
 21
43.79236851381256
 31
0.0
  0
LINE
  5
4BF
330
1F
100
AcDbEntity
  8
0
 62
     4
100
AcDbLine
 10
96.32254438176154
 20
37.29236851381256
 30
0.0
 11
76.32254438176154
 21
37.29236851381256
 31
0.0
  0
LWPOLYLINE
  5
4C0
330
1F
100
AcDbEntity
  8
0
 62
     4
100
AcDbPolyline
 90
        4
 70
     1
 43
0.0
 10
95.94664488198239
 20
38.27051672548623
 10
91.69791877090951
 20
38.27051672548623
 10
91.69791877090951
 20
43.56506098233057
 10
95.94664488198239
 20
43.56506098233057
  0
LWPOLYLINE
  5
4C1
330
1F
100
AcDbEntity
  8
0
 62
     4
100
AcDbPolyline
 90
        4
 70
     1
 43
0.0
 10
90.94611977135128
 20
38.27051672548623
 10
86.69739366027842
 20
38.27051672548623
 10
86.69739366027842
 20
43.56506098233057
 10
90.94611977135128
 20
43.56506098233057
  0
LWPOLYLINE
  5
4C2
330
1F
100
AcDbEntity
  8
0
 62
     4
100
AcDbPolyline
 90
        4
 70
     1
 43
0.0
 10
85.95822143464751
 20
38.27051672548623
 10
81.70949532357465
 20
38.27051672548623
 10
81.70949532357465
 20
43.56506098233057
 10
85.95822143464751
 20
43.56506098233057
  0
LWPOLYLINE
  5
4C3
330
1F
100
AcDbEntity
  8
0
 62
     4
100
AcDbPolyline
 90
        4
 70
     1
 43
0.0
 10
80.94005403710026
 20
38.27051672548623
 10
76.6913279260274
 20
38.27051672548623
 10
76.6913279260274
 20
43.56506098233057
 10
80.94005403710026
 20
43.56506098233057
  0
LINE
  5
4C4
330
1F
100
AcDbEntity
  8
0
 62
     0
100
AcDbLine
 10
95.94664488198239
 20
41.76888649662351
 30
0.0
 11
91.69791877090951
 21
41.76888649662351
 31
0.0
  0
LINE
  5
4C5
330
1F
100
AcDbEntity
  8
0
 62
     0
100
AcDbLine
 10
90.94611977135128
 20
41.76888649662351
 30
0.0
 11
86.69739366027842
 21
41.76888649662351
 31
0.0
  0
LINE
  5
4C6
330
1F
100
AcDbEntity
  8
0
 62
     0
100
AcDbLine
 10
85.95822143464751
 20
41.76888649662351
 30
0.0
 11
81.70949532357465
 21
41.76888649662351
 31
0.0
  0
LINE
  5
4C7
330
1F
100
AcDbEntity
  8
0
 62
     0
100
AcDbLine
 10
80.94005403710026
 20
41.76888649662351
 30
0.0
 11
76.6913279260274
 21
41.76888649662351
 31
0.0
  0
LINE
  5
4C8
330
1F
100
AcDbEntity
  8
0
 62
     4
100
AcDbLine
 10
96.32254438176154
 20
51.29236851381256
 30
0.0
 11
76.32254438176154
 21
51.29236851381256
 31
0.0
  0
LWPOLYLINE
  5
4C9
330
1F
100
AcDbEntity
  8
0
 62
     4
100
AcDbPolyline
 90
        2
 70
     0
 43
0.0
 10
96.32254438176154
 20
43.79236851381256
 10
96.32254438176154
 20
37.29236851381256
  0
LWPOLYLINE
  5
4CA
330
1F
100
AcDbEntity
  8
0
 62
     4
100
AcDbPolyline
 90
        2
 70
     0
 43
0.0
 10
96.32254438176154
 20
35.79236851381256
 10
116.3225443817616
 20
35.79236851381256
  0
LWPOLYLINE
  5
4CB
330
1F
100
AcDbEntity
  8
0
 62
     4
100
AcDbPolyline
 90
        2
 70
     0
 43
0.0
 10
116.3225443817616
 20
37.29236851381256
 10
116.3225443817616
 20
43.79236851381256
  0
LWPOLYLINE
  5
4CC
330
1F
100
AcDbEntity
  8
0
 62
     4
100
AcDbPolyline
 90
        2
 70
     0
 43
0.0
 10
116.3225443817616
 20
51.79236851381256
 10
96.32254438176154
 20
51.79236851381256
  0
LINE
  5
4CD
330
1F
100
AcDbEntity
  8
0
 62
     4
100
AcDbLine
 10
106.3225443817616
 20
37.29236851381256
 30
0.0
 11
106.3225443817616
 21
43.79236851381256
 31
0.0
  0
LINE
  5
4CE
330
1F
100
AcDbEntity
  8
0
 62
     4
100
AcDbLine
 10
116.3225443817616
 20
43.79236851381256
 30
0.0
 11
96.32254438176154
 21
43.79236851381256
 31
0.0
  0
LINE
  5
4CF
330
1F
100
AcDbEntity
  8
0
 62
     4
100
AcDbLine
 10
111.3225443817616
 20
37.29236851381256
 30
0.0
 11
111.3225443817616
 21
43.79236851381256
 31
0.0
  0
LINE
  5
4D0
330
1F
100
AcDbEntity
  8
0
 62
     4
100
AcDbLine
 10
101.3225443817616
 20
37.29236851381256
 30
0.0
 11
101.3225443817616
 21
43.79236851381256
 31
0.0
  0
LINE
  5
4D1
330
1F
100
AcDbEntity
  8
0
 62
     4
100
AcDbLine
 10
116.3225443817616
 20
37.29236851381256
 30
0.0
 11
96.32254438176154
 21
37.29236851381256
 31
0.0
  0
LWPOLYLINE
  5
4D2
330
1F
100
AcDbEntity
  8
0
 62
     4
100
AcDbPolyline
 90
        4
 70
     1
 43
0.0
 10
115.9466448819824
 20
38.27051672548623
 10
111.6979187709096
 20
38.27051672548623
 10
111.6979187709096
 20
43.56506098233057
 10
115.9466448819824
 20
43.56506098233057
  0
LWPOLYLINE
  5
4D3
330
1F
100
AcDbEntity
  8
0
 62
     4
100
AcDbPolyline
 90
        4
 70
     1
 43
0.0
 10
110.9461197713514
 20
38.27051672548623
 10
106.6973936602785
 20
38.27051672548623
 10
106.6973936602785
 20
43.56506098233057
 10
110.9461197713514
 20
43.56506098233057
  0
LWPOLYLINE
  5
4D4
330
1F
100
AcDbEntity
  8
0
 62
     4
100
AcDbPolyline
 90
        4
 70
     1
 43
0.0
 10
105.9582214346476
 20
38.27051672548623
 10
101.7094953235747
 20
38.27051672548623
 10
101.7094953235747
 20
43.56506098233057
 10
105.9582214346476
 20
43.56506098233057
  0
LWPOLYLINE
  5
4D5
330
1F
100
AcDbEntity
  8
0
 62
     4
100
AcDbPolyline
 90
        4
 70
     1
 43
0.0
 10
100.9400540371003
 20
38.27051672548623
 10
96.6913279260274
 20
38.27051672548623
 10
96.6913279260274
 20
43.56506098233057
 10
100.9400540371003
 20
43.56506098233057
  0
LINE
  5
4D6
330
1F
100
AcDbEntity
  8
0
 62
     0
100
AcDbLine
 10
115.9466448819824
 20
41.76888649662351
 30
0.0
 11
111.6979187709096
 21
41.76888649662351
 31
0.0
  0
LINE
  5
4D7
330
1F
100
AcDbEntity
  8
0
 62
     0
100
AcDbLine
 10
110.9461197713514
 20
41.76888649662351
 30
0.0
 11
106.6973936602785
 21
41.76888649662351
 31
0.0
  0
LINE
  5
4D8
330
1F
100
AcDbEntity
  8
0
 62
     0
100
AcDbLine
 10
105.9582214346476
 20
41.76888649662351
 30
0.0
 11
101.7094953235747
 21
41.76888649662351
 31
0.0
  0
LINE
  5
4D9
330
1F
100
AcDbEntity
  8
0
 62
     0
100
AcDbLine
 10
100.9400540371003
 20
41.76888649662351
 30
0.0
 11
96.6913279260274
 21
41.76888649662351
 31
0.0
  0
LINE
  5
4DA
330
1F
100
AcDbEntity
  8
0
 62
     4
100
AcDbLine
 10
116.3225443817616
 20
51.29236851381256
 30
0.0
 11
96.32254438176154
 21
51.29236851381256
 31
0.0
  0
LWPOLYLINE
  5
4DB
330
1F
100
AcDbEntity
  8
0
 62
     4
100
AcDbPolyline
 90
        2
 70
     0
 43
0.0
 10
116.3225443817616
 20
43.79236851381256
 10
116.3225443817616
 20
37.29236851381256
  0
LWPOLYLINE
  5
4DC
330
1F
100
AcDbEntity
  8
0
 62
     4
100
AcDbPolyline
 90
        2
 70
     0
 43
0.0
 10
116.3225443817616
 20
35.79236851381256
 10
136.3225443817617
 20
35.79236851381256
  0
LWPOLYLINE
  5
4DD
330
1F
100
AcDbEntity
  8
0
 62
     4
100
AcDbPolyline
 90
        2
 70
     0
 43
0.0
 10
136.3225443817617
 20
37.29236851381256
 10
136.3225443817617
 20
43.79236851381256
  0
LWPOLYLINE
  5
4DE
330
1F
100
AcDbEntity
  8
0
 62
     4
100
AcDbPolyline
 90
        2
 70
     0
 43
0.0
 10
136.3225443817617
 20
51.79236851381256
 10
116.3225443817616
 20
51.79236851381256
  0
LINE
  5
4DF
330
1F
100
AcDbEntity
  8
0
 62
     4
100
AcDbLine
 10
126.3225443817617
 20
35.79236851381256
 30
0.0
 11
126.3225443817617
 21
51.79236851381256
 31
0.0
  0
LINE
  5
4E0
330
1F
100
AcDbEntity
  8
0
 62
     4
100
AcDbLine
 10
136.3225443817617
 20
43.79236851381256
 30
0.0
 11
116.3225443817616
 21
43.79236851381256
 31
0.0
  0
LINE
  5
4E1
330
1F
100
AcDbEntity
  8
0
 62
     4
100
AcDbLine
 10
131.3225443817617
 20
37.29236851381256
 30
0.0
 11
131.3225443817617
 21
43.79236851381256
 31
0.0
  0
LINE
  5
4E2
330
1F
100
AcDbEntity
  8
0
 62
     4
100
AcDbLine
 10
121.3225443817617
 20
37.29236851381256
 30
0.0
 11
121.3225443817617
 21
43.79236851381256
 31
0.0
  0
LINE
  5
4E3
330
1F
100
AcDbEntity
  8
0
 62
     4
100
AcDbLine
 10
136.3225443817617
 20
37.29236851381256
 30
0.0
 11
116.3225443817616
 21
37.29236851381256
 31
0.0
  0
LWPOLYLINE
  5
4E4
330
1F
100
AcDbEntity
  8
0
 62
     4
100
AcDbPolyline
 90
        4
 70
     1
 43
0.0
 10
135.9466448819825
 20
38.27051672548623
 10
131.6979187709096
 20
38.27051672548623
 10
131.6979187709096
 20
43.56506098233057
 10
135.9466448819825
 20
43.56506098233057
  0
LWPOLYLINE
  5
4E5
330
1F
100
AcDbEntity
  8
0
 62
     4
100
AcDbPolyline
 90
        4
 70
     1
 43
0.0
 10
130.9461197713514
 20
38.27051672548623
 10
126.6973936602785
 20
38.27051672548623
 10
126.6973936602785
 20
43.56506098233057
 10
130.9461197713514
 20
43.56506098233057
  0
LWPOLYLINE
  5
4E6
330
1F
100
AcDbEntity
  8
0
 62
     4
100
AcDbPolyline
 90
        4
 70
     1
 43
0.0
 10
125.9582214346476
 20
38.27051672548623
 10
121.7094953235748
 20
38.27051672548623
 10
121.7094953235748
 20
43.56506098233057
 10
125.9582214346476
 20
43.56506098233057
  0
LWPOLYLINE
  5
4E7
330
1F
100
AcDbEntity
  8
0
 62
     4
100
AcDbPolyline
 90
        4
 70
     1
 43
0.0
 10
120.9400540371004
 20
38.27051672548623
 10
116.6913279260274
 20
38.27051672548623
 10
116.6913279260274
 20
43.56506098233057
 10
120.9400540371004
 20
43.56506098233057
  0
LINE
  5
4E8
330
1F
100
AcDbEntity
  8
0
 62
     0
100
AcDbLine
 10
135.9466448819825
 20
41.76888649662351
 30
0.0
 11
131.6979187709096
 21
41.76888649662351
 31
0.0
  0
LINE
  5
4E9
330
1F
100
AcDbEntity
  8
0
 62
     0
100
AcDbLine
 10
130.9461197713514
 20
41.76888649662351
 30
0.0
 11
126.6973936602785
 21
41.76888649662351
 31
0.0
  0
LINE
  5
4EA
330
1F
100
AcDbEntity
  8
0
 62
     0
100
AcDbLine
 10
125.9582214346476
 20
41.76888649662351
 30
0.0
 11
121.7094953235748
 21
41.76888649662351
 31
0.0
  0
LINE
  5
4EB
330
1F
100
AcDbEntity
  8
0
 62
     0
100
AcDbLine
 10
120.9400540371004
 20
41.76888649662351
 30
0.0
 11
116.6913279260274
 21
41.76888649662351
 31
0.0
  0
LINE
  5
4EC
330
1F
100
AcDbEntity
  8
0
 62
     4
100
AcDbLine
 10
136.3225443817617
 20
51.29236851381256
 30
0.0
 11
116.3225443817616
 21
51.29236851381256
 31
0.0
  0
LWPOLYLINE
  5
4ED
330
1F
100
AcDbEntity
  8
0
 62
     4
100
AcDbPolyline
 90
        2
 70
     0
 43
0.0
 10
136.3225443817617
 20
43.79236851381256
 10
136.3225443817617
 20
37.29236851381256
  0
LWPOLYLINE
  5
4EE
330
1F
100
AcDbEntity
  8
0
 62
     4
100
AcDbPolyline
 90
        2
 70
     0
 43
0.0
 10
136.3225443817617
 20
35.79236851381256
 10
156.3225443817617
 20
35.79236851381256
  0
LWPOLYLINE
  5
4EF
330
1F
100
AcDbEntity
  8
0
 62
     4
100
AcDbPolyline
 90
        2
 70
     0
 43
0.0
 10
156.3225443817617
 20
37.29236851381256
 10
156.3225443817617
 20
43.79236851381256
  0
LWPOLYLINE
  5
4F0
330
1F
100
AcDbEntity
  8
0
 62
     4
100
AcDbPolyline
 90
        2
 70
     0
 43
0.0
 10
156.3225443817617
 20
51.79236851381256
 10
136.3225443817617
 20
51.79236851381256
  0
LINE
  5
4F1
330
1F
100
AcDbEntity
  8
0
 62
     4
100
AcDbLine
 10
146.3225443817617
 20
37.29236851381256
 30
0.0
 11
146.3225443817617
 21
43.79236851381256
 31
0.0
  0
LINE
  5
4F2
330
1F
100
AcDbEntity
  8
0
 62
     4
100
AcDbLine
 10
156.3225443817617
 20
43.79236851381256
 30
0.0
 11
136.3225443817617
 21
43.79236851381256
 31
0.0
  0
LINE
  5
4F3
330
1F
100
AcDbEntity
  8
0
 62
     4
100
AcDbLine
 10
151.3225443817617
 20
37.29236851381256
 30
0.0
 11
151.3225443817617
 21
43.79236851381256
 31
0.0
  0
LINE
  5
4F4
330
1F
100
AcDbEntity
  8
0
 62
     4
100
AcDbLine
 10
141.3225443817617
 20
37.29236851381256
 30
0.0
 11
141.3225443817617
 21
43.79236851381256
 31
0.0
  0
LINE
  5
4F5
330
1F
100
AcDbEntity
  8
0
 62
     4
100
AcDbLine
 10
156.3225443817617
 20
37.29236851381256
 30
0.0
 11
136.3225443817617
 21
37.29236851381256
 31
0.0
  0
LWPOLYLINE
  5
4F6
330
1F
100
AcDbEntity
  8
0
 62
     4
100
AcDbPolyline
 90
        4
 70
     1
 43
0.0
 10
155.9466448819826
 20
38.27051672548623
 10
151.6979187709097
 20
38.27051672548623
 10
151.6979187709097
 20
43.56506098233057
 10
155.9466448819826
 20
43.56506098233057
  0
LWPOLYLINE
  5
4F7
330
1F
100
AcDbEntity
  8
0
 62
     4
100
AcDbPolyline
 90
        4
 70
     1
 43
0.0
 10
150.9461197713515
 20
38.27051672548623
 10
146.6973936602786
 20
38.27051672548623
 10
146.6973936602786
 20
43.56506098233057
 10
150.9461197713515
 20
43.56506098233057
  0
LWPOLYLINE
  5
4F8
330
1F
100
AcDbEntity
  8
0
 62
     4
100
AcDbPolyline
 90
        4
 70
     1
 43
0.0
 10
145.9582214346477
 20
38.27051672548623
 10
141.7094953235748
 20
38.27051672548623
 10
141.7094953235748
 20
43.56506098233057
 10
145.9582214346477
 20
43.56506098233057
  0
LWPOLYLINE
  5
4F9
330
1F
100
AcDbEntity
  8
0
 62
     4
100
AcDbPolyline
 90
        4
 70
     1
 43
0.0
 10
140.9400540371005
 20
38.27051672548623
 10
136.6913279260275
 20
38.27051672548623
 10
136.6913279260275
 20
43.56506098233057
 10
140.9400540371005
 20
43.56506098233057
  0
LINE
  5
4FA
330
1F
100
AcDbEntity
  8
0
 62
     0
100
AcDbLine
 10
155.9466448819826
 20
41.76888649662351
 30
0.0
 11
151.6979187709097
 21
41.76888649662351
 31
0.0
  0
LINE
  5
4FB
330
1F
100
AcDbEntity
  8
0
 62
     0
100
AcDbLine
 10
150.9461197713515
 20
41.76888649662351
 30
0.0
 11
146.6973936602786
 21
41.76888649662351
 31
0.0
  0
LINE
  5
4FC
330
1F
100
AcDbEntity
  8
0
 62
     0
100
AcDbLine
 10
145.9582214346477
 20
41.76888649662351
 30
0.0
 11
141.7094953235748
 21
41.76888649662351
 31
0.0
  0
LINE
  5
4FD
330
1F
100
AcDbEntity
  8
0
 62
     0
100
AcDbLine
 10
140.9400540371005
 20
41.76888649662351
 30
0.0
 11
136.6913279260275
 21
41.76888649662351
 31
0.0
  0
LINE
  5
4FE
330
1F
100
AcDbEntity
  8
0
 62
     4
100
AcDbLine
 10
156.3225443817617
 20
51.29236851381256
 30
0.0
 11
136.3225443817617
 21
51.29236851381256
 31
0.0
  0
LWPOLYLINE
  5
4FF
330
1F
100
AcDbEntity
  8
0
 62
     4
100
AcDbPolyline
 90
        2
 70
     0
 43
0.0
 10
156.3225443817617
 20
43.79236851381256
 10
156.3225443817617
 20
37.29236851381256
  0
LWPOLYLINE
  5
500
330
1F
100
AcDbEntity
  8
0
 62
     4
100
AcDbPolyline
 90
        4
 70
     0
 43
0.0
 10
156.3225443817617
 20
35.79236851381256
 10
176.3225443817618
 20
35.79236851381256
 10
176.3225443817618
 20
51.79236851381256
 10
156.3225443817617
 20
51.79236851381256
  0
LINE
  5
501
330
1F
100
AcDbEntity
  8
0
 62
     4
100
AcDbLine
 10
166.3225443817618
 20
37.29236851381256
 30
0.0
 11
166.3225443817618
 21
43.79236851381256
 31
0.0
  0
LINE
  5
502
330
1F
100
AcDbEntity
  8
0
 62
     4
100
AcDbLine
 10
176.3225443817618
 20
43.79236851381256
 30
0.0
 11
156.3225443817617
 21
43.79236851381256
 31
0.0
  0
LINE
  5
503
330
1F
100
AcDbEntity
  8
0
 62
     4
100
AcDbLine
 10
171.3225443817618
 20
37.29236851381256
 30
0.0
 11
171.3225443817618
 21
43.79236851381256
 31
0.0
  0
LINE
  5
504
330
1F
100
AcDbEntity
  8
0
 62
     4
100
AcDbLine
 10
176.3225443817618
 20
35.79236851381256
 30
0.0
 11
176.3225443817618
 21
37.29236851381256
 31
0.0
  0
LINE
  5
505
330
1F
100
AcDbEntity
  8
0
 62
     4
100
AcDbLine
 10
161.3225443817618
 20
37.29236851381256
 30
0.0
 11
161.3225443817618
 21
43.79236851381256
 31
0.0
  0
LINE
  5
506
330
1F
100
AcDbEntity
  8
0
 62
     4
100
AcDbLine
 10
176.3225443817618
 20
37.29236851381256
 30
0.0
 11
156.3225443817617
 21
37.29236851381256
 31
0.0
  0
LWPOLYLINE
  5
507
330
1F
100
AcDbEntity
  8
0
 62
     4
100
AcDbPolyline
 90
        4
 70
     1
 43
0.0
 10
175.9466448819826
 20
38.27051672548623
 10
171.6979187709098
 20
38.27051672548623
 10
171.6979187709098
 20
43.56506098233057
 10
175.9466448819826
 20
43.56506098233057
  0
LWPOLYLINE
  5
508
330
1F
100
AcDbEntity
  8
0
 62
     4
100
AcDbPolyline
 90
        4
 70
     1
 43
0.0
 10
170.9461197713515
 20
38.27051672548623
 10
166.6973936602787
 20
38.27051672548623
 10
166.6973936602787
 20
43.56506098233057
 10
170.9461197713515
 20
43.56506098233057
  0
LWPOLYLINE
  5
509
330
1F
100
AcDbEntity
  8
0
 62
     4
100
AcDbPolyline
 90
        4
 70
     1
 43
0.0
 10
165.9582214346478
 20
38.27051672548623
 10
161.7094953235749
 20
38.27051672548623
 10
161.7094953235749
 20
43.56506098233057
 10
165.9582214346478
 20
43.56506098233057
  0
LWPOLYLINE
  5
50A
330
1F
100
AcDbEntity
  8
0
 62
     4
100
AcDbPolyline
 90
        4
 70
     1
 43
0.0
 10
160.9400540371005
 20
38.27051672548623
 10
156.6913279260276
 20
38.27051672548623
 10
156.6913279260276
 20
43.56506098233057
 10
160.9400540371005
 20
43.56506098233057
  0
LINE
  5
50B
330
1F
100
AcDbEntity
  8
0
 62
     0
100
AcDbLine
 10
175.9466448819826
 20
41.76888649662351
 30
0.0
 11
171.6979187709098
 21
41.76888649662351
 31
0.0
  0
LINE
  5
50C
330
1F
100
AcDbEntity
  8
0
 62
     0
100
AcDbLine
 10
170.9461197713515
 20
41.76888649662351
 30
0.0
 11
166.6973936602787
 21
41.76888649662351
 31
0.0
  0
LINE
  5
50D
330
1F
100
AcDbEntity
  8
0
 62
     0
100
AcDbLine
 10
165.9582214346478
 20
41.76888649662351
 30
0.0
 11
161.7094953235749
 21
41.76888649662351
 31
0.0
  0
LINE
  5
50E
330
1F
100
AcDbEntity
  8
0
 62
     0
100
AcDbLine
 10
160.9400540371005
 20
41.76888649662351
 30
0.0
 11
156.6913279260276
 21
41.76888649662351
 31
0.0
  0
LINE
  5
50F
330
1F
100
AcDbEntity
  8
0
 62
     4
100
AcDbLine
 10
176.3225443817618
 20
51.79236851381256
 30
0.0
 11
176.3225443817618
 21
51.29236851381256
 31
0.0
  0
LINE
  5
510
330
1F
100
AcDbEntity
  8
0
 62
     4
100
AcDbLine
 10
176.3225443817618
 20
51.29236851381256
 30
0.0
 11
156.3225443817617
 21
51.29236851381256
 31
0.0
  0
ARC
  5
511
102
{ACAD_REACTORS
330
51A
330
51D
102
}
330
1F
100
AcDbEntity
  8
0
100
AcDbCircle
 10
68.35287446851352
 20
79.79860172094823
 30
0.0
 40
1.310660171779521
100
AcDbArc
 50
102.3501001262012
 51
167.6498998737891
  0
ARC
  5
512
330
1F
100
AcDbEntity
  8
0
100
AcDbCircle
 10
68.35287446851352
 20
73.79860172094822
 30
0.0
 40
1.310660171779521
100
AcDbArc
 50
102.3501001262012
 51
167.6498998737891
  0
LINE
  5
513
330
1F
100
AcDbEntity
  8
0
100
AcDbLine
 10
67.07254438262386
 20
75.07893180683777
 30
0.0
 11
67.07254438262386
 21
74.07893180683777
 31
0.0
  0
ARC
  5
514
330
1F
100
AcDbEntity
  8
0
100
AcDbCircle
 10
68.35287446851352
 20
53.79860172094822
 30
0.0
 40
1.310660171779521
100
AcDbArc
 50
102.3501001262012
 51
167.6498998737891
  0
ARC
  5
515
102
{ACAD_REACTORS
330
51A
102
}
330
1F
100
AcDbEntity
  8
0
100
AcDbCircle
 10
184.2978898116055
 20
79.80427723754383
 30
0.0
 40
1.303909277310461
100
AcDbArc
 50
12.15982091124337
 51
77.84017908875934
  0
ARC
  5
516
330
1F
100
AcDbEntity
  8
0
100
AcDbCircle
 10
184.2978898116055
 20
73.80427723754383
 30
0.0
 40
1.303909277310461
100
AcDbArc
 50
12.15982091124337
 51
77.84017908875934
  0
ARC
  5
517
330
1F
100
AcDbEntity
  8
0
100
AcDbCircle
 10
184.2978898116055
 20
53.80427723754383
 30
0.0
 40
1.303909277310461
100
AcDbArc
 50
12.15982091124337
 51
77.84017908875934
  0
DIMENSION
  5
518
102
{ACAD_XDICTIONARY
360
519
102
}
102
{ACAD_REACTORS
330
51A
102
}
330
1F
100
AcDbEntity
  8
0
370
    40
100
AcDbDimension
  2
*D15
 10
185.5725443808996
 20
91.98313011875585
 30
0.0
 11
126.3225443817617
 21
102.7333801187558
 31
0.0
 70
    32
  1
{\H0.7667x;\C256;119}
 71
     5
 42
118.4999999982757
  3
TRIEU
100
AcDbAlignedDimension
 13
67.0725443826239
 23
80.0789318068381
 33
0.0
 14
185.5725443808996
 24
80.0789318068381
 34
0.0
100
AcDbRotatedDimension
  0
DIMENSION
  5
51B
102
{ACAD_XDICTIONARY
360
51C
102
}
102
{ACAD_REACTORS
330
51D
102
}
330
1F
100
AcDbEntity
  8
0
370
    40
100
AcDbDimension
  2
*D16
 10
53.8879597072272
 20
81.07893180683777
 30
0.0
 11
43.13770970722718
 21
53.57893180683778
 31
0.0
 70
    32
  1
{\H0.7667x;\C256;55}
 71
     5
 42
55.0
  3
TRIEU
100
AcDbAlignedDimension
 13
67.07254438262386
 23
26.07893180683777
 33
0.0
 14
68.07254438262386
 24
81.07893180683777
 34
0.0
 50
90.0
100
AcDbRotatedDimension
  0
LINE
  5
51E
330
1F
100
AcDbEntity
  8
0
100
AcDbLine
 10
222.9611232758206
 20
26.07893180683777
 30
0.0
 11
255.6640225584613
 21
26.07893180683777
 31
0.0
  0
LINE
  5
51F
330
1F
100
AcDbEntity
  8
0
100
AcDbLine
 10
285.6293189081064
 20
26.07893180683777
 30
0.0
 11
322.9611232758206
 21
26.07893180683777
 31
0.0
  0
LINE
  5
520
330
1F
100
AcDbEntity
  8
0
100
AcDbLine
 10
322.9611232758206
 20
26.07893180683777
 30
0.0
 11
322.9611232758206
 21
54.07893180683777
 31
0.0
  0
LINE
  5
521
330
1F
100
AcDbEntity
  8
0
100
AcDbLine
 10
222.9611232758206
 20
54.07893180683777
 30
0.0
 11
222.9611232758206
 21
26.07893180683777
 31
0.0
  0
LINE
  5
522
330
1F
100
AcDbEntity
  8
0
100
AcDbLine
 10
222.9611232758206
 20
31.07893180683777
 30
0.0
 11
322.9611232758206
 21
31.07893180683777
 31
0.0
  0
LINE
  5
523
330
1F
100
AcDbEntity
  8
0
100
AcDbLine
 10
222.9611232758206
 20
35.07893180683777
 30
0.0
 11
322.9611232758206
 21
35.07893180683777
 31
0.0
  0
LINE
  5
524
330
1F
100
AcDbEntity
  8
0
100
AcDbLine
 10
292.9611232758206
 20
31.07893180683777
 30
0.0
 11
272.9611232758206
 21
31.07893180683777
 31
0.0
  0
LINE
  5
525
330
1F
100
AcDbEntity
  8
0
100
AcDbLine
 10
252.9611232758206
 20
31.07893180683777
 30
0.0
 11
252.9611232758206
 21
26.07893180683777
 31
0.0
  0
LINE
  5
526
330
1F
100
AcDbEntity
  8
0
100
AcDbLine
 10
292.9611232758206
 20
31.07893180683777
 30
0.0
 11
292.9611232758206
 21
26.07893180683777
 31
0.0
  0
LINE
  5
527
330
1F
100
AcDbEntity
  8
0
100
AcDbLine
 10
292.9611232758206
 20
29.12434601074074
 30
0.0
 11
285.6293189081064
 21
27.60163890878948
 31
0.0
  0
LINE
  5
528
330
1F
100
AcDbEntity
  8
0
100
AcDbLine
 10
285.6293189081064
 20
27.60163890878948
 30
0.0
 11
285.6293189081064
 21
26.07893180683777
 31
0.0
  0
LINE
  5
529
330
1F
100
AcDbEntity
  8
0
100
AcDbLine
 10
252.9611232758206
 20
26.07893180683777
 30
0.0
 11
255.6640225584612
 21
26.07893180683777
 31
0.0
  0
LINE
  5
52A
330
1F
100
AcDbEntity
  8
0
100
AcDbLine
 10
255.6640225584613
 20
26.07893180683777
 30
0.0
 11
260.2611232758206
 21
28.57893180683777
 31
0.0
  0
LINE
  5
52B
330
1F
100
AcDbEntity
  8
0
100
AcDbLine
 10
260.2611232758206
 20
28.57893180683777
 30
0.0
 11
260.2611232758206
 21
29.19677085481908
 31
0.0
  0
LINE
  5
52C
330
1F
100
AcDbEntity
  8
0
100
AcDbLine
 10
259.3816342387599
 20
29.81460990279993
 30
0.0
 11
252.9611232758206
 21
29.81460990279993
 31
0.0
  0
LINE
  5
52D
330
1F
100
AcDbEntity
  8
0
100
AcDbLine
 10
260.2611232758206
 20
29.19677085481908
 30
0.0
 11
259.3816342387598
 21
29.81460990279993
 31
0.0
  0
LWPOLYLINE
  5
52E
330
1F
100
AcDbEntity
  8
0
100
AcDbPolyline
 90
        4
 70
     1
 43
0.0
 10
268.6160723524745
 20
36.72925813449615
 10
276.9860616551421
 20
36.72925813449615
 10
276.9860616551421
 20
41.06089764050693
 10
268.6160723524745
 20
41.06089764050693
  0
LINE
  5
52F
330
1F
100
AcDbEntity
  8
0
100
AcDbLine
 10
268.6160723524745
 20
40.16216519825957
 30
0.0
 11
276.9860616551421
 21
40.16216519825957
 31
0.0
  0
LINE
  5
530
330
1F
100
AcDbEntity
  8
0
100
AcDbLine
 10
222.9611232758206
 20
35.07893180683777
 30
0.0
 11
222.9611232758206
 21
54.07893180683777
 31
0.0
  0
LINE
  5
531
330
1F
100
AcDbEntity
  8
0
100
AcDbLine
 10
223.9611232758208
 20
55.07893180683777
 30
0.0
 11
235.9611232758206
 21
55.07893180683777
 31
0.0
  0
LINE
  5
532
330
1F
100
AcDbEntity
  8
0
100
AcDbLine
 10
309.9611232758206
 20
55.07893180683777
 30
0.0
 11
321.9611232758207
 21
55.07893180683777
 31
0.0
  0
LINE
  5
533
330
1F
100
AcDbEntity
  8
0
100
AcDbLine
 10
235.885552852093
 20
75.07893180683777
 30
0.0
 11
243.9611232758206
 21
75.078931806838
 31
0.0
  0
LINE
  5
534
330
1F
100
AcDbEntity
  8
0
100
AcDbLine
 10
301.9611232758206
 20
75.07893180683777
 30
0.0
 11
309.9611232758206
 21
75.07893180683777
 31
0.0
  0
LINE
  5
535
330
1F
100
AcDbEntity
  8
0
100
AcDbLine
 10
235.9611232758206
 20
55.07893180683777
 30
0.0
 11
235.9611232758206
 21
74.09784803790308
 31
0.0
  0
LINE
  5
536
330
1F
100
AcDbEntity
  8
0
100
AcDbLine
 10
321.9611232758205
 20
55.07893180683777
 30
0.0
 11
309.9611232758206
 21
55.07893180683777
 31
0.0
  0
LINE
  5
537
330
1F
100
AcDbEntity
  8
0
100
AcDbLine
 10
309.9611232758206
 20
55.07893180683777
 30
0.0
 11
309.9611232758206
 21
74.07893180683777
 31
0.0
  0
LINE
  5
538
330
1F
100
AcDbEntity
  8
0
100
AcDbLine
 10
235.9611232758206
 20
75.07893180683777
 30
0.0
 11
243.9611232758206
 21
75.07893180683777
 31
0.0
  0
LINE
  5
539
330
1F
100
AcDbEntity
  8
0
100
AcDbLine
 10
243.9611232758206
 20
75.07893180683777
 30
0.0
 11
243.9611232758206
 21
80.07893180683778
 31
0.0
  0
LINE
  5
53A
330
1F
100
AcDbEntity
  8
0
100
AcDbLine
 10
309.9611232758206
 20
75.07893180683777
 30
0.0
 11
301.9611232758206
 21
75.07893180683777
 31
0.0
  0
LINE
  5
53B
330
1F
100
AcDbEntity
  8
0
100
AcDbLine
 10
301.9611232758206
 20
75.07893180683777
 30
0.0
 11
301.9611232758206
 21
80.07893180683778
 31
0.0
  0
LINE
  5
53C
330
1F
100
AcDbEntity
  8
0
100
AcDbLine
 10
235.9611232758206
 20
75.07893180683777
 30
0.0
 11
235.8855528520928
 21
75.07893180683777
 31
0.0
  0
LINE
  5
53D
330
1F
100
AcDbEntity
  8
0
100
AcDbLine
 10
234.9611232758206
 20
74.09784803790308
 30
0.0
 11
234.9611232758206
 21
55.07893180683777
 31
0.0
  0
LINE
  5
53E
330
1F
100
AcDbEntity
  8
0
100
AcDbLine
 10
309.9611232758206
 20
55.07893180683777
 30
0.0
 11
310.9611232758206
 21
55.07893180683777
 31
0.0
  0
LINE
  5
53F
330
1F
100
AcDbEntity
  8
0
100
AcDbLine
 10
310.9611232758206
 20
55.07893180683777
 30
0.0
 11
310.9611232758206
 21
74.07893180683777
 31
0.0
  0
LINE
  5
540
330
1F
100
AcDbEntity
  8
0
100
AcDbLine
 10
272.9611232758206
 20
81.07893180683777
 30
0.0
 11
270.4611232758206
 21
81.07893180683777
 31
0.0
  0
LINE
  5
541
330
1F
100
AcDbEntity
  8
0
100
AcDbLine
 10
272.9611232758206
 20
81.07893180683777
 30
0.0
 11
275.4611232758206
 21
81.07893180683777
 31
0.0
  0
LINE
  5
542
330
1F
100
AcDbEntity
  8
0
100
AcDbLine
 10
271.3667572321967
 20
81.07893180683777
 30
0.0
 11
268.3667572321967
 21
81.07893180683777
 31
0.0
  0
LINE
  5
543
330
1F
100
AcDbEntity
  8
0
100
AcDbLine
 10
272.9611232758206
 20
81.07893180683777
 30
0.0
 11
275.9611232758206
 21
81.07893180683777
 31
0.0
  0
LINE
  5
544
330
1F
100
AcDbEntity
  8
0
100
AcDbLine
 10
244.9611232758208
 20
81.07893180683777
 30
0.0
 11
271.3667572321967
 21
81.07893180683777
 31
0.0
  0
LINE
  5
545
102
{ACAD_REACTORS
330
56E
102
}
330
1F
100
AcDbEntity
  8
0
100
AcDbLine
 10
274.0083062976326
 20
81.07893180683777
 30
0.0
 11
300.9611232758206
 21
81.07893180683777
 31
0.0
  0
ARC
  5
546
330
1F
100
AcDbEntity
  8
0
100
AcDbCircle
 10
245.2414533617103
 20
79.79860172094823
 30
0.0
 40
1.310660171779521
100
AcDbArc
 50
102.3501001262012
 51
167.6498998738017
  0
ARC
  5
547
330
1F
100
AcDbEntity
  8
0
100
AcDbCircle
 10
236.2414533617103
 20
73.8175179520133
 30
0.0
 40
1.310660171779521
100
AcDbArc
 50
105.7561011091591
 51
167.6498998738017
  0
ARC
  5
548
330
1F
100
AcDbEntity
  8
0
100
AcDbCircle
 10
224.2414533617103
 20
53.79860172094822
 30
0.0
 40
1.310660171779521
100
AcDbArc
 50
102.3501001262012
 51
167.6498998738017
  0
ARC
  5
549
330
1F
100
AcDbEntity
  8
0
100
AcDbCircle
 10
237.2414533617103
 20
73.8175179520133
 30
0.0
 40
1.310660171779521
100
AcDbArc
 50
105.7561011091591
 51
167.6498998738017
  0
ARC
  5
54A
102
{ACAD_REACTORS
330
56E
102
}
330
1F
100
AcDbEntity
  8
0
100
AcDbCircle
 10
300.6864687065266
 20
79.80427723754383
 30
0.0
 40
1.303909277310461
100
AcDbArc
 50
12.15982091124337
 51
77.840179088756
  0
ARC
  5
54B
330
1F
100
AcDbEntity
  8
0
100
AcDbCircle
 10
309.6864687065266
 20
73.80427723754383
 30
0.0
 40
1.303909277310461
100
AcDbArc
 50
12.15982091124337
 51
77.840179088756
  0
ARC
  5
54C
330
1F
100
AcDbEntity
  8
0
100
AcDbCircle
 10
321.6864687065266
 20
53.80427723754383
 30
0.0
 40
1.303909277310461
100
AcDbArc
 50
12.15982091124337
 51
77.840179088756
  0
ARC
  5
54D
330
1F
100
AcDbEntity
  8
0
100
AcDbCircle
 10
308.6864687065266
 20
73.80427723754383
 30
0.0
 40
1.303909277310461
100
AcDbArc
 50
12.15982091124337
 51
77.840179088756
  0
LINE
  5
54E
330
1F
100
AcDbEntity
  8
0
100
AcDbLine
 10
222.9611232758206
 20
35.79236851381256
 30
0.0
 11
322.9611232758206
 21
35.79236851381256
 31
0.0
  0
LINE
  5
54F
330
1F
100
AcDbEntity
  8
0
 62
     4
100
AcDbLine
 10
322.9611232758206
 20
35.79236851381256
 30
0.0
 11
334.9611232758206
 21
35.79236851381256
 31
0.0
  0
LINE
  5
550
330
1F
100
AcDbEntity
  8
0
 62
     4
100
AcDbLine
 10
334.9611232758206
 20
35.79236851381256
 30
0.0
 11
334.9611232758206
 21
51.79236851381256
 31
0.0
  0
LINE
  5
551
330
1F
100
AcDbEntity
  8
0
 62
     4
100
AcDbLine
 10
334.9611232758206
 20
51.79236851381256
 30
0.0
 11
328.4611232758206
 21
51.79236851381256
 31
0.0
  0
LINE
  5
552
330
1F
100
AcDbEntity
  8
0
 62
     4
100
AcDbLine
 10
326.9611232758206
 20
46.30320364949557
 30
0.0
 11
326.9611232758206
 21
35.79236851381256
 31
0.0
  0
LINE
  5
553
330
1F
100
AcDbEntity
  8
0
 62
     4
100
AcDbLine
 10
326.9611232758206
 20
43.79236851381256
 30
0.0
 11
322.9611232758206
 21
43.79236851381256
 31
0.0
  0
LINE
  5
554
330
1F
100
AcDbEntity
  8
0
 62
     4
100
AcDbLine
 10
328.4611232758206
 20
51.79236851381256
 30
0.0
 11
326.9611232758206
 21
46.30320364949557
 31
0.0
  0
LINE
  5
555
330
1F
100
AcDbEntity
  8
0
 62
     4
100
AcDbLine
 10
326.9611232758206
 20
44.69806014176675
 30
0.0
 11
324.6368461798638
 21
44.24521432778965
 31
0.0
  0
LINE
  5
556
330
1F
100
AcDbEntity
  8
0
 62
     4
100
AcDbLine
 10
324.6368461798638
 20
44.24521432778965
 30
0.0
 11
324.6368461798638
 21
43.79236851381256
 31
0.0
  0
LINE
  5
557
330
1F
100
AcDbEntity
  8
0
 62
     4
100
AcDbLine
 10
334.9611232758206
 20
51.79236851381256
 30
0.0
 11
334.1611232758206
 21
51.79236851381256
 31
0.0
  0
LINE
  5
558
330
1F
100
AcDbEntity
  8
0
 62
     4
100
AcDbLine
 10
222.9611232758206
 20
35.79236851381256
 30
0.0
 11
210.9611232758206
 21
35.79236851381256
 31
0.0
  0
LINE
  5
559
330
1F
100
AcDbEntity
  8
0
 62
     4
100
AcDbLine
 10
210.9611232758206
 20
35.79236851381256
 30
0.0
 11
210.9611232758206
 21
51.79236851381256
 31
0.0
  0
LINE
  5
55A
330
1F
100
AcDbEntity
  8
0
 62
     4
100
AcDbLine
 10
210.9611232758206
 20
51.79236851381256
 30
0.0
 11
217.4611232758206
 21
51.79236851381256
 31
0.0
  0
LINE
  5
55B
330
1F
100
AcDbEntity
  8
0
 62
     4
100
AcDbLine
 10
210.9611232758206
 20
35.79236851381256
 30
0.0
 11
218.9611232758206
 21
35.79236851381256
 31
0.0
  0
LINE
  5
55C
330
1F
100
AcDbEntity
  8
0
 62
     4
100
AcDbLine
 10
218.9611232758206
 20
35.79236851381256
 30
0.0
 11
218.9611232758206
 21
46.30320364949557
 31
0.0
  0
LINE
  5
55D
330
1F
100
AcDbEntity
  8
0
 62
     4
100
AcDbLine
 10
218.9611232758206
 20
43.79236851381256
 30
0.0
 11
222.9611232758206
 21
43.79236851381256
 31
0.0
  0
LINE
  5
55E
330
1F
100
AcDbEntity
  8
0
 62
     4
100
AcDbLine
 10
222.9611232758206
 20
43.79236851381256
 30
0.0
 11
221.2611232758206
 21
43.79236851381256
 31
0.0
  0
LINE
  5
55F
330
1F
100
AcDbEntity
  8
0
 62
     4
100
AcDbLine
 10
221.2611232758206
 20
43.79236851381256
 30
0.0
 11
221.2611232758206
 21
44.29236851381256
 31
0.0
  0
LINE
  5
560
330
1F
100
AcDbEntity
  8
0
 62
     4
100
AcDbLine
 10
218.9611232758206
 20
44.69806014176675
 30
0.0
 11
221.2611232758206
 21
44.29236851381256
 31
0.0
  0
LINE
  5
561
330
1F
100
AcDbEntity
  8
0
 62
     4
100
AcDbLine
 10
210.9611232758206
 20
51.79236851381256
 30
0.0
 11
217.4611232758206
 21
51.79236851381256
 31
0.0
  0
LINE
  5
562
330
1F
100
AcDbEntity
  8
0
 62
     4
100
AcDbLine
 10
217.4611232758206
 20
51.79236851381256
 30
0.0
 11
218.9611232758206
 21
46.30320364949557
 31
0.0
  0
LINE
  5
563
330
1F
100
AcDbEntity
  8
0
 62
     4
100
AcDbLine
 10
210.9611232758206
 20
35.79236851381256
 30
0.0
 11
211.7611232758207
 21
35.79236851381256
 31
0.0
  0
LWPOLYLINE
  5
564
330
1F
100
AcDbEntity
  8
0
100
AcDbPolyline
 90
        4
 70
     1
 43
0.0
 10
222.9611232758206
 20
26.07893180683777
 10
219.3808752933355
 20
26.07893180683777
 10
219.3808752933355
 20
28.77267699401591
 10
222.9611232758206
 20
28.77267699401591
  0
LINE
  5
565
102
{ACAD_REACTORS
330
56B
102
}
330
1F
100
AcDbEntity
  8
0
 62
     4
100
AcDbLine
 10
210.9611232758206
 20
35.79236851381256
 30
0.0
 11
211.461015030818
 21
35.7819649910582
 31
0.0
  0
LINE
  5
566
330
1F
100
AcDbEntity
  8
0
 62
     4
100
AcDbLine
 10
211.461015030818
 20
35.7819649910582
 30
0.0
 11
211.461015030818
 21
51.79236851381256
 31
0.0
  0
LINE
  5
567
102
{ACAD_REACTORS
330
56B
102
}
330
1F
100
AcDbEntity
  8
0
 62
     4
100
AcDbLine
 10
334.9611232758206
 20
35.79236851381256
 30
0.0
 11
334.4611232758206
 21
35.79236851381256
 31
0.0
  0
LINE
  5
568
330
1F
100
AcDbEntity
  8
0
 62
     4
100
AcDbLine
 10
334.4611232758206
 20
35.79236851381256
 30
0.0
 11
334.4611232758206
 21
51.79236851381256
 31
0.0
  0
DIMENSION
  5
569
102
{ACAD_XDICTIONARY
360
56A
102
}
102
{ACAD_REACTORS
330
56B
102
}
330
1F
100
AcDbEntity
  8
0
370
    40
100
AcDbDimension
  2
*D17
 10
334.9611232758206
 20
91.98313011875553
 30
0.0
 11
272.9611232758206
 21
102.7333801187555
 31
0.0
 70
    32
  1
{\H0.7667x;\C256;124}
 71
     5
 42
124.0
  3
TRIEU
100
AcDbAlignedDimension
 13
210.9611232758206
 23
35.79236851381256
 33
0.0
 14
334.9611232758206
 24
35.79236851381256
 34
0.0
100
AcDbRotatedDimension
  0
DIMENSION
  5
56C
102
{ACAD_XDICTIONARY
360
56D
102
}
102
{ACAD_REACTORS
330
56E
102
}
330
1F
100
AcDbEntity
  8
0
370
    40
100
AcDbDimension
  2
*D18
 10
361.2443350250881
 20
26.07893180683774
 30
0.0
 11
350.4940850250881
 21
53.57893180683781
 31
0.0
 70
    32
  1
{\H0.7667x;\C256;55}
 71
     5
 42
55.0
  3
TRIEU
100
AcDbAlignedDimension
 13
300.9611232758208
 23
81.07893180683777
 33
0.0
 14
300.9611232758208
 24
26.07893180683777
 34
0.0
 50
90.0
100
AcDbRotatedDimension
  0
DIMENSION
  5
56F
330
1F
100
AcDbEntity
  8
0
370
    40
100
AcDbDimension
  2
*D11
 10
210.9611232758206
 20
135.1314053953055
 30
0.0
 11
200.2108732758206
 21
185.3814053945744
 31
0.0
 70
    32
  1
{\H0.7667x;\C256;101}
 71
     5
 42
100.4999999985375
  3
TRIEU
100
AcDbAlignedDimension
 13
185.5725443808995
 23
235.6314053938431
 33
0.0
 14
185.5725443808995
 24
135.1314053953056
 34
0.0
 50
90.0
100
AcDbRotatedDimension
  0
DIMENSION
  5
570
330
1F
100
AcDbEntity
  8
0
370
    40
100
AcDbDimension
  2
*D12
 10
238.931766786617
 20
122.6738365881631
 30
0.0
 11
228.181516786617
 21
185.3814053945888
 31
0.0
 70
    32
  1
{\H0.7667x;\C256;125}
 71
     5
 42
125.4151376128513
  3
TRIEU
100
AcDbAlignedDimension
 13
176.8225443810268
 23
248.0889742010145
 33
0.0
 14
176.8225443810268
 24
122.6738365881631
 34
0.0
 50
90.0
100
AcDbRotatedDimension
  0
DIMENSION
  5
571
330
1F
100
AcDbEntity
  8
0
370
    40
100
AcDbDimension
  2
*D13
 10
176.8225443810268
 20
258.5005745492353
 30
0.0
 11
125.822544381769
 21
269.2508245492354
 31
0.0
 70
    32
  1
{\H0.7667x;\C256;102}
 71
     5
 42
101.9999999985157
  3
TRIEU
100
AcDbAlignedDimension
 13
74.82254438251114
 23
248.0889742010145
 33
0.0
 14
176.8225443810268
 24
248.0304879624859
 34
0.0
100
AcDbRotatedDimension
  0
DIMENSION
  5
572
330
1F
100
AcDbEntity
  8
0
370
    40
100
AcDbDimension
  2
*D14
 10
185.5725443808995
 20
279.4593189768221
 30
0.0
 11
126.3225443817617
 21
290.209568976822
 31
0.0
 70
    32
  1
{\H0.7667x;\C256;119}
 71
     5
 42
118.4999999982756
  3
TRIEU
100
AcDbAlignedDimension
 13
67.07254438262392
 23
235.6314053938431
 33
0.0
 14
185.5725443808995
 24
235.6314053938431
 34
0.0
100
AcDbRotatedDimension
  0
ENDSEC
  0
SECTION
  2
OBJECTS
  0
DICTIONARY
  5
C
330
0
100
AcDbDictionary
281
     1
  3
ACAD_COLOR
350
73
  3
ACAD_GROUP
350
D
  3
ACAD_LAYOUT
350
1A
  3
ACAD_MATERIAL
350
72
  3
ACAD_MLINESTYLE
350
17
  3
ACAD_PLOTSETTINGS
350
19
  3
ACAD_PLOTSTYLENAME
350
E
  3
ACAD_TABLESTYLE
350
86
  3
ACAD_VISUALSTYLE
350
99
  3
AcDbVariableDictionary
350
66
  3
DWGPROPS
350
60B
  0
DICTIONARY
  5
122
330
2
100
AcDbDictionary
280
     1
281
     1
  3
ACAD_LAYERSTATES
360
123
  0
DICTIONARY
  5
519
330
518
100
AcDbDictionary
280
     1
281
     1
  3
ACAD_DIMASSOC
360
51A
  0
DICTIONARY
  5
51C
330
51B
100
AcDbDictionary
280
     1
281
     1
  3
ACAD_DIMASSOC
360
51D
  0
DICTIONARY
  5
56A
330
569
100
AcDbDictionary
280
     1
281
     1
  3
ACAD_DIMASSOC
360
56B
  0
DICTIONARY
  5
56D
330
56C
100
AcDbDictionary
280
     1
281
     1
  3
ACAD_DIMASSOC
360
56E
  0
DICTIONARY
  5
73
102
{ACAD_REACTORS
330
C
102
}
330
C
100
AcDbDictionary
281
     1
  0
DICTIONARY
  5
D
102
{ACAD_REACTORS
330
C
102
}
330
C
100
AcDbDictionary
281
     1
  0
DICTIONARY
  5
1A
102
{ACAD_REACTORS
330
C
102
}
330
C
100
AcDbDictionary
281
     1
  3
Layout1
350
59
  3
Layout2
350
5E
  3
Model
350
22
  0
DICTIONARY
  5
72
102
{ACAD_REACTORS
330
C
102
}
330
C
100
AcDbDictionary
281
     1
  3
ByBlock
350
97
  3
ByLayer
350
96
  3
Global
350
98
  0
DICTIONARY
  5
17
102
{ACAD_REACTORS
330
C
102
}
330
C
100
AcDbDictionary
281
     1
  3
Standard
350
18
  0
DICTIONARY
  5
19
102
{ACAD_REACTORS
330
C
102
}
330
C
100
AcDbDictionary
281
     1
  0
ACDBDICTIONARYWDFLT
  5
E
102
{ACAD_REACTORS
330
C
102
}
330
C
100
AcDbDictionary
281
     1
  3
Normal
350
F
100
AcDbDictionaryWithDefault
340
F
  0
DICTIONARY
  5
86
102
{ACAD_REACTORS
330
C
102
}
330
C
100
AcDbDictionary
281
     1
  3
Standard
350
87
  0
DICTIONARY
  5
99
102
{ACAD_REACTORS
330
C
102
}
330
C
100
AcDbDictionary
281
     1
  3
2dWireframe
350
9F
  3
3D Hidden
350
A1
  3
3dWireframe
350
A0
  3
Basic
350
9E
  3
Brighten
350
A5
  3
ColorChange
350
A9
  3
Conceptual
350
A2
  3
Dim
350
A4
  3
Facepattern
350
A8
  3
Flat
350
9A
  3
FlatWithEdges
350
9B
  3
Gouraud
350
9C
  3
GouraudWithEdges
350
9D
  3
Linepattern
350
A7
  3
Realistic
350
A3
  3
Thicken
350
A6
  0
DICTIONARY
  5
66
102
{ACAD_REACTORS
330
C
102
}
330
C
100
AcDbDictionary
281
     1
  3
CTABLESTYLE
350
89
  3
DIMASSOC
350
67
  3
HIDETEXT
350
6B
  3
INDEXCTL
350
60A
  3
SORTENTS
350
609
  0
XRECORD
  5
60B
102
{ACAD_REACTORS
330
C
102
}
330
C
100
AcDbXrecord
280
     1
  1
DWGPROPS COOKIE
  2

  3

  4

  6

  7

  8
Administrator
  9

300
=
301
=
302
=
303
=
304
=
305
=
306
=
307
=
308
=
309
=
 40
0.0006267013888889
 41
2458472.386546493
 42
2458472.387170834
  1

 90
        0
  0
DICTIONARY
  5
123
102
{ACAD_REACTORS
330
122
102
}
330
122
100
AcDbDictionary
281
     1
  0
DIMASSOC
  5
51A
102
{ACAD_REACTORS
330
519
102
}
330
519
100
AcDbDimAssoc
330
518
 90
        3
 70
     0
 71
     0
  1
AcDbOsnapPointRef
 72
     1
331
511
 73
     2
 91
        0
 40
2.926042743436616
 10
0.0
 20
0.0
 30
2.000000000000000E+50
 75
     0
  1
AcDbOsnapPointRef
 72
    13
331
515
 73
     2
 91
        0
 40
0.2122289113540576
 10
0.0
 20
0.0
 30
2.000000000000000E+50
 75
     0
  0
DIMASSOC
  5
51D
102
{ACAD_REACTORS
330
51C
102
}
330
51C
100
AcDbDimAssoc
330
51B
 90
        3
 70
     0
 71
     0
  1
AcDbOsnapPointRef
 72
    13
331
479
 73
     2
 91
        0
 40
0.0
 10
0.0
 20
0.0
 30
2.000000000000000E+50
 75
     0
  1
AcDbOsnapPointRef
 72
    13
331
511
 73
     2
 91
        0
 40
1.786346236948073
 10
0.0
 20
0.0
 30
2.000000000000000E+50
 75
     0
  0
DIMASSOC
  5
56B
102
{ACAD_REACTORS
330
56A
102
}
330
56A
100
AcDbDimAssoc
330
569
 90
        3
 70
     0
 71
     0
  1
AcDbOsnapPointRef
 72
    13
331
565
 73
     2
 91
        0
 40
0.0
 10
0.0
 20
0.0
 30
2.000000000000000E+50
 75
     0
  1
AcDbOsnapPointRef
 72
    13
331
567
 73
     2
 91
        0
 40
0.0
 10
0.0
 20
0.0
 30
2.000000000000000E+50
 75
     0
  0
DIMASSOC
  5
56E
102
{ACAD_REACTORS
330
56D
102
}
330
56D
100
AcDbDimAssoc
330
56C
 90
        1
 70
     0
 71
     0
  1
AcDbOsnapPointRef
 72
     6
331
545
 73
     2
 91
        0
 40
1.0
 10
0.0
 20
0.0
 30
0.0
332
54A
 74
     2
 92
        0
 75
     0
  0
LAYOUT
  5
59
102
{ACAD_XDICTIONARY
360
60E
102
}
102
{ACAD_REACTORS
330
1A
102
}
330
1A
100
AcDbPlotSettings
  1

  2
None
  4

  6

 40
0.0
 41
0.0
 42
0.0
 43
0.0
 44
0.0
 45
0.0
 46
0.0
 47
0.0
 48
0.0
 49
0.0
140
0.0
141
0.0
142
1.0
143
1.0
 70
   688
 72
     0
 73
     0
 74
     5
  7

 75
    16
147
1.0
148
0.0
149
0.0
100
AcDbLayout
  1
Layout1
 70
     1
 71
     1
 10
0.0
 20
0.0
 11
12.0
 21
9.0
 12
0.0
 22
0.0
 32
0.0
 14
0.0
 24
0.0
 34
0.0
 15
0.0
 25
0.0
 35
0.0
146
0.0
 13
0.0
 23
0.0
 33
0.0
 16
1.0
 26
0.0
 36
0.0
 17
0.0
 27
1.0
 37
0.0
 76
     0
330
58
  0
LAYOUT
  5
5E
102
{ACAD_XDICTIONARY
360
610
102
}
102
{ACAD_REACTORS
330
1A
102
}
330
1A
100
AcDbPlotSettings
  1

  2
None
  4

  6

 40
0.0
 41
0.0
 42
0.0
 43
0.0
 44
0.0
 45
0.0
 46
0.0
 47
0.0
 48
0.0
 49
0.0
140
0.0
141
0.0
142
1.0
143
1.0
 70
   688
 72
     0
 73
     0
 74
     5
  7

 75
    16
147
1.0
148
0.0
149
0.0
100
AcDbLayout
  1
Layout2
 70
     1
 71
     2
 10
0.0
 20
0.0
 11
12.0
 21
9.0
 12
0.0
 22
0.0
 32
0.0
 14
0.0
 24
0.0
 34
0.0
 15
0.0
 25
0.0
 35
0.0
146
0.0
 13
0.0
 23
0.0
 33
0.0
 16
1.0
 26
0.0
 36
0.0
 17
0.0
 27
1.0
 37
0.0
 76
     0
330
5D
  0
LAYOUT
  5
22
102
{ACAD_XDICTIONARY
360
60C
102
}
102
{ACAD_REACTORS
330
1A
102
}
330
1A
100
AcDbPlotSettings
  1

  2
none_device
  4
ANSI_A_(8.50_x_11.00_Inches)
  6

 40
6.349999904632568
 41
19.04999923706055
 42
6.350006103515625
 43
19.04998779296875
 44
215.8999938964844
 45
279.3999938964844
 46
0.0
 47
0.0
 48
0.0
 49
0.0
140
0.0
141
0.0
142
1.0
143
2.584895464708373
 70
 11952
 72
     0
 73
     1
 74
     0
  7

 75
     0
147
0.3868628397755418
148
0.0
149
0.0
100
AcDbLayout
  1
Model
 70
     1
 71
     0
 10
0.0
 20
0.0
 11
12.0
 21
9.0
 12
0.0
 22
0.0
 32
0.0
 14
0.0
 24
0.0
 34
0.0
 15
0.0
 25
0.0
 35
0.0
146
0.0
 13
0.0
 23
0.0
 33
0.0
 16
1.0
 26
0.0
 36
0.0
 17
0.0
 27
1.0
 37
0.0
 76
     0
330
1F
331
94
  0
MATERIAL
  5
97
102
{ACAD_XDICTIONARY
360
616
102
}
102
{ACAD_REACTORS
330
72
102
}
330
72
100
AcDbMaterial
  1
ByBlock
  0
MATERIAL
  5
96
102
{ACAD_XDICTIONARY
360
614
102
}
102
{ACAD_REACTORS
330
72
102
}
330
72
100
AcDbMaterial
  1
ByLayer
  0
MATERIAL
  5
98
102
{ACAD_XDICTIONARY
360
618
102
}
102
{ACAD_REACTORS
330
72
102
}
330
72
100
AcDbMaterial
  1
Global
  0
MLINESTYLE
  5
18
102
{ACAD_REACTORS
330
17
102
}
330
17
100
AcDbMlineStyle
  2
STANDARD
 70
     0
  3

 62
   256
 51
90.0
 52
90.0
 71
     2
 49
0.5
 62
   256
  6
BYLAYER
 49
-0.5
 62
   256
  6
BYLAYER
  0
ACDBPLACEHOLDER
  5
F
102
{ACAD_REACTORS
330
E
102
}
330
E
  0
TABLESTYLE
  5
87
102
{ACAD_XDICTIONARY
360
612
102
}
102
{ACAD_REACTORS
330
86
102
}
330
86
100
AcDbTableStyle
  3
Standard
 70
     0
 71
     0
 40
0.06
 41
0.06
280
     0
281
     0
  7
Standard
140
0.18
170
     2
 62
     0
 63
     7
283
     0
274
    -2
284
     1
 64
     0
275
    -2
285
     1
 65
     0
276
    -2
286
     1
 66
     0
277
    -2
287
     1
 67
     0
278
    -2
288
     1
 68
     0
279
    -2
289
     1
 69
     0
  7
Standard
140
0.25
170
     5
 62
     0
 63
     7
283
     0
274
    -2
284
     1
 64
     0
275
    -2
285
     1
 65
     0
276
    -2
286
     1
 66
     0
277
    -2
287
     1
 67
     0
278
    -2
288
     1
 68
     0
279
    -2
289
     1
 69
     0
  7
Standard
140
0.18
170
     5
 62
     0
 63
     7
283
     0
274
    -2
284
     1
 64
     0
275
    -2
285
     1
 65
     0
276
    -2
286
     1
 66
     0
277
    -2
287
     1
 67
     0
278
    -2
288
     1
 68
     0
279
    -2
289
     1
 69
     0
  0
VISUALSTYLE
  5
9F
102
{ACAD_REACTORS
330
99
102
}
330
99
100
AcDbVisualStyle
  2
2dWireframe
 70
     4
 71
     0
 72
     2
 73
     1
 90
        0
 40
-0.6
 41
-30.0
 62
     5
 63
     7
 74
     1
 91
        4
 64
     7
 65
   257
 75
     1
175
     1
 42
1.0
 92
        0
 66
   257
 43
1.0
 76
     1
 77
     6
 78
     2
 67
     7
 79
     5
170
     0
171
     0
290
     0
174
     0
 93
        1
 44
0.0
173
     0
291
     0
 45
0.0
1001
ACAD
1000
AcDbSavedByObjectVersion
1070
     0
  0
VISUALSTYLE
  5
A1
102
{ACAD_REACTORS
330
99
102
}
330
99
100
AcDbVisualStyle
  2
3D Hidden
 70
     6
 71
     1
 72
     2
 73
     2
 90
        0
 40
-0.6
 41
-30.0
 62
     5
 63
     7
 74
     2
 91
        2
 64
     7
 65
   257
 75
     2
175
     1
 42
40.0
 92
        0
 66
   257
 43
1.0
 76
     1
 77
     6
 78
     2
 67
     7
 79
     3
170
     0
171
     0
290
     0
174
     0
 93
        1
 44
0.0
173
     0
291
     0
 45
0.0
1001
ACAD
1000
AcDbSavedByObjectVersion
1070
     0
  0
VISUALSTYLE
  5
A0
102
{ACAD_REACTORS
330
99
102
}
330
99
100
AcDbVisualStyle
  2
3dWireframe
 70
     5
 71
     0
 72
     2
 73
     1
 90
        0
 40
-0.6
 41
-30.0
 62
     5
 63
     7
 74
     1
 91
        4
 64
     7
 65
   257
 75
     1
175
     1
 42
1.0
 92
        0
 66
   257
 43
1.0
 76
     1
 77
     6
 78
     2
 67
     7
 79
     5
170
     0
171
     0
290
     0
174
     0
 93
        1
 44
0.0
173
     0
291
     0
 45
0.0
1001
ACAD
1000
AcDbSavedByObjectVersion
1070
     0
  0
VISUALSTYLE
  5
9E
102
{ACAD_REACTORS
330
99
102
}
330
99
100
AcDbVisualStyle
  2
Basic
 70
     7
 71
     1
 72
     0
 73
     1
 90
        0
 40
-0.6
 41
-30.0
 62
     5
 63
     7
 74
     0
 91
        4
 64
     7
 65
   257
 75
     1
175
     1
 42
1.0
 92
        8
 66
     7
 43
1.0
 76
     1
 77
     6
 78
     2
 67
     7
 79
     5
170
     0
171
     0
290
     0
174
     0
 93
        1
 44
0.0
173
     0
291
     1
 45
0.0
1001
ACAD
1000
AcDbSavedByObjectVersion
1070
     0
  0
VISUALSTYLE
  5
A5
102
{ACAD_REACTORS
330
99
102
}
330
99
100
AcDbVisualStyle
  2
Brighten
 70
    12
 71
     2
 72
     2
 73
     1
 90
        0
 40
-0.6
 41
-30.0
 62
     5
 63
     7
 74
     1
 91
        4
 64
     7
 65
   257
 75
     1
175
     1
 42
1.0
 92
        8
 66
     7
 43
1.0
 76
     1
 77
     6
 78
     2
 67
     7
 79
     5
170
     0
171
     0
290
     0
174
     0
 93
        1
 44
50.0
173
     0
291
     1
 45
0.0
1001
ACAD
1000
AcDbSavedByObjectVersion
1070
     0
  0
VISUALSTYLE
  5
A9
102
{ACAD_REACTORS
330
99
102
}
330
99
100
AcDbVisualStyle
  2
ColorChange
 70
    16
 71
     2
 72
     2
 73
     3
 90
        0
 40
-0.6
 41
-30.0
 62
     5
 63
     8
 74
     1
 91
        4
 64
     7
 65
   257
 75
     1
175
     1
 42
1.0
 92
        8
 66
     8
 43
1.0
 76
     1
 77
     6
 78
     2
 67
     7
 79
     5
170
     0
171
     0
290
     0
174
     0
 93
        1
 44
0.0
173
     0
291
     1
 45
0.0
1001
ACAD
1000
AcDbSavedByObjectVersion
1070
     0
  0
VISUALSTYLE
  5
A2
102
{ACAD_REACTORS
330
99
102
}
330
99
100
AcDbVisualStyle
  2
Conceptual
 70
     9
 71
     3
 72
     2
 73
     1
 90
        0
 40
-0.6
 41
-30.0
 62
     5
 63
     7
 74
     2
 91
        2
 64
     7
 65
   257
 75
     1
175
     1
 42
40.0
 92
        8
 66
     7
 43
1.0
 76
     1
 77
     6
 78
     2
 67
     7
 79
     3
170
     0
171
     0
290
     0
174
     0
 93
        1
 44
0.0
173
     0
291
     0
 45
0.0
1001
ACAD
1000
AcDbSavedByObjectVersion
1070
     0
  0
VISUALSTYLE
  5
A4
102
{ACAD_REACTORS
330
99
102
}
330
99
100
AcDbVisualStyle
  2
Dim
 70
    11
 71
     2
 72
     2
 73
     1
 90
        0
 40
-0.6
 41
-30.0
 62
     5
 63
     7
 74
     1
 91
        4
 64
     7
 65
   257
 75
     1
175
     1
 42
1.0
 92
        8
 66
     7
 43
1.0
 76
     1
 77
     6
 78
     2
 67
     7
 79
     5
170
     0
171
     0
290
     0
174
     0
 93
        1
 44
-50.0
173
     0
291
     1
 45
0.0
1001
ACAD
1000
AcDbSavedByObjectVersion
1070
     0
  0
VISUALSTYLE
  5
A8
102
{ACAD_REACTORS
330
99
102
}
330
99
100
AcDbVisualStyle
  2
Facepattern
 70
    15
 71
     2
 72
     2
 73
     1
 90
        0
 40
-0.6
 41
-30.0
 62
     5
 63
     7
 74
     1
 91
        4
 64
     7
 65
   257
 75
     1
175
     1
 42
1.0
 92
        8
 66
     7
 43
1.0
 76
     1
 77
     6
 78
     2
 67
     7
 79
     5
170
     0
171
     0
290
     0
174
     0
 93
        1
 44
0.0
173
     0
291
     1
 45
0.0
1001
ACAD
1000
AcDbSavedByObjectVersion
1070
     0
  0
VISUALSTYLE
  5
9A
102
{ACAD_REACTORS
330
99
102
}
330
99
100
AcDbVisualStyle
  2
Flat
 70
     0
 71
     2
 72
     1
 73
     1
 90
        2
 40
-0.6
 41
30.0
 62
     5
 63
     7
 74
     0
 91
        4
 64
     7
 65
   257
 75
     1
175
     1
 42
1.0
 92
        8
 66
     7
 43
1.0
 76
     1
 77
     6
 78
     2
 67
     7
 79
     5
170
     0
171
     0
290
     0
174
     0
 93
        1
 44
0.0
173
     0
291
     1
 45
0.0
1001
ACAD
1000
AcDbSavedByObjectVersion
1070
     0
  0
VISUALSTYLE
  5
9B
102
{ACAD_REACTORS
330
99
102
}
330
99
100
AcDbVisualStyle
  2
FlatWithEdges
 70
     1
 71
     2
 72
     1
 73
     1
 90
        2
 40
-0.6
 41
30.0
 62
     5
 63
     7
 74
     1
 91
        4
 64
     7
 65
   257
 75
     1
175
     1
 42
1.0
 92
        0
 66
   257
 43
1.0
 76
     1
 77
     6
 78
     2
 67
     7
 79
     5
170
     0
171
     0
290
     0
174
     0
 93
        1
 44
0.0
173
     0
291
     1
 45
0.0
1001
ACAD
1000
AcDbSavedByObjectVersion
1070
     0
  0
VISUALSTYLE
  5
9C
102
{ACAD_REACTORS
330
99
102
}
330
99
100
AcDbVisualStyle
  2
Gouraud
 70
     2
 71
     2
 72
     2
 73
     1
 90
        2
 40
-0.6
 41
30.0
 62
     5
 63
     7
 74
     0
 91
        4
 64
     7
 65
   257
 75
     1
175
     1
 42
1.0
 92
        0
 66
     7
 43
1.0
 76
     1
 77
     6
 78
     2
 67
     7
 79
     5
170
     0
171
     0
290
     0
174
     0
 93
        1
 44
0.0
173
     0
291
     1
 45
0.0
1001
ACAD
1000
AcDbSavedByObjectVersion
1070
     0
  0
VISUALSTYLE
  5
9D
102
{ACAD_REACTORS
330
99
102
}
330
99
100
AcDbVisualStyle
  2
GouraudWithEdges
 70
     3
 71
     2
 72
     2
 73
     1
 90
        2
 40
-0.6
 41
30.0
 62
     5
 63
     7
 74
     1
 91
        4
 64
     7
 65
   257
 75
     1
175
     1
 42
1.0
 92
        0
 66
   257
 43
1.0
 76
     1
 77
     6
 78
     2
 67
     7
 79
     5
170
     0
171
     0
290
     0
174
     0
 93
        1
 44
0.0
173
     0
291
     1
 45
0.0
1001
ACAD
1000
AcDbSavedByObjectVersion
1070
     0
  0
VISUALSTYLE
  5
A7
102
{ACAD_REACTORS
330
99
102
}
330
99
100
AcDbVisualStyle
  2
Linepattern
 70
    14
 71
     2
 72
     2
 73
     1
 90
        0
 40
-0.6
 41
-30.0
 62
     5
 63
     7
 74
     1
 91
        4
 64
     7
 65
   257
 75
     7
175
     7
 42
1.0
 92
        8
 66
     7
 43
1.0
 76
     1
 77
     6
 78
     2
 67
     7
 79
     5
170
     0
171
     0
290
     0
174
     0
 93
        1
 44
0.0
173
     0
291
     1
 45
0.0
1001
ACAD
1000
AcDbSavedByObjectVersion
1070
     0
  0
VISUALSTYLE
  5
A3
102
{ACAD_REACTORS
330
99
102
}
330
99
100
AcDbVisualStyle
  2
Realistic
 70
     8
 71
     2
 72
     2
 73
     1
 90
        0
 40
-0.6
 41
-30.0
 62
     5
 63
     7
 74
     1
 91
        0
 64
     7
 65
   257
 75
     1
175
     1
 42
1.0
 92
        8
 66
     8
 43
1.0
 76
     1
 77
     6
 78
     2
 67
     7
 79
     5
170
     0
171
     0
290
     0
174
     0
 93
       13
 44
0.0
173
     0
291
     0
 45
0.0
1001
ACAD
1000
AcDbSavedByObjectVersion
1070
     0
  0
VISUALSTYLE
  5
A6
102
{ACAD_REACTORS
330
99
102
}
330
99
100
AcDbVisualStyle
  2
Thicken
 70
    13
 71
     2
 72
     2
 73
     1
 90
        0
 40
-0.6
 41
-30.0
 62
     5
 63
     7
 74
     1
 91
        4
 64
     7
 65
   257
 75
     1
175
     1
 42
1.0
 92
       12
 66
     7
 43
1.0
 76
     1
 77
     6
 78
     2
 67
     7
 79
     5
170
     0
171
     0
290
     0
174
     0
 93
        1
 44
0.0
173
     0
291
     1
 45
0.0
1001
ACAD
1000
AcDbSavedByObjectVersion
1070
     0
  0
DICTIONARYVAR
  5
89
102
{ACAD_REACTORS
330
66
102
}
330
66
100
DictionaryVariables
280
     0
  1
STANDARD
  0
DICTIONARYVAR
  5
67
102
{ACAD_REACTORS
330
66
102
}
330
66
100
DictionaryVariables
280
     0
  1
2
  0
DICTIONARYVAR
  5
6B
102
{ACAD_REACTORS
330
66
102
}
330
66
100
DictionaryVariables
280
     0
  1
1
  0
DICTIONARYVAR
  5
60A
102
{ACAD_REACTORS
330
66
102
}
330
66
100
DictionaryVariables
280
     0
  1
0
  0
DICTIONARYVAR
  5
609
102
{ACAD_REACTORS
330
66
102
}
330
66
100
DictionaryVariables
280
     0
  1
127
  0
DICTIONARY
  5
60E
330
59
100
AcDbDictionary
280
     1
281
     1
  3
ACAD_XREC_ROUNDTRIP
360
60F
  0
DICTIONARY
  5
610
330
5E
100
AcDbDictionary
280
     1
281
     1
  3
ACAD_XREC_ROUNDTRIP
360
611
  0
DICTIONARY
  5
60C
330
22
100
AcDbDictionary
280
     1
281
     1
  3
ACAD_XREC_ROUNDTRIP
360
60D
  0
DICTIONARY
  5
616
330
97
100
AcDbDictionary
280
     1
281
     1
  3
ACAD_XREC_ROUNDTRIP
360
617
  0
DICTIONARY
  5
614
330
96
100
AcDbDictionary
280
     1
281
     1
  3
ACAD_XREC_ROUNDTRIP
360
615
  0
DICTIONARY
  5
618
330
98
100
AcDbDictionary
280
     1
281
     1
  3
ACAD_XREC_ROUNDTRIP
360
619
  0
DICTIONARY
  5
612
330
87
100
AcDbDictionary
280
     1
281
     1
  3
ACAD_XREC_ROUNDTRIP
360
613
  0
XRECORD
  5
60F
102
{ACAD_REACTORS
330
60E
102
}
330
60E
100
AcDbXrecord
280
     1
102
SHADEPLOT
 70
     0
102
SHADEPLOTRESLEVEL
 70
     2
102
SHADEPLOTCUSTOMDPI
 70
   300
  0
XRECORD
  5
611
102
{ACAD_REACTORS
330
610
102
}
330
610
100
AcDbXrecord
280
     1
102
SHADEPLOT
 70
     0
102
SHADEPLOTRESLEVEL
 70
     2
102
SHADEPLOTCUSTOMDPI
 70
   300
  0
XRECORD
  5
60D
102
{ACAD_REACTORS
330
60C
102
}
330
60C
100
AcDbXrecord
280
     1
102
SHADEPLOT
 70
     0
102
SHADEPLOTRESLEVEL
 70
     2
102
SHADEPLOTCUSTOMDPI
 70
   300
  0
XRECORD
  5
617
102
{ACAD_REACTORS
330
616
102
}
330
616
100
AcDbXrecord
280
     1
102
MATERIAL
148
0.0
149
0.0
149
0.0
 93
        0
 94
       63
282
     0
 72
     1
 77
     1
171
     1
175
     1
179
     1
273
     0
  0
XRECORD
  5
615
102
{ACAD_REACTORS
330
614
102
}
330
614
100
AcDbXrecord
280
     1
102
MATERIAL
148
0.0
149
0.0
149
0.0
 93
        0
 94
       63
282
     0
 72
     1
 77
     1
171
     1
175
     1
179
     1
273
     0
  0
XRECORD
  5
619
102
{ACAD_REACTORS
330
618
102
}
330
618
100
AcDbXrecord
280
     1
102
MATERIAL
148
0.0
149
0.0
149
0.0
 93
        0
 94
       63
282
     0
 72
     1
 77
     1
171
     1
175
     1
179
     1
273
     0
  0
XRECORD
  5
613
102
{ACAD_REACTORS
330
612
102
}
330
612
100
AcDbXrecord
280
     1
102
ACAD_ROUNDTRIP_PRE2007_TABLESTYLE
 90
      512
 91
        0
  1

 92
      512
 93
        0
  2

 94
      512
 95
        0
  3

  0
ENDSEC
  0
EOF
